Today is a free download without charge Download

Пять невест (Карен Оганесян) [2011, Россия, комедия, DVD9] R5 Original Rus [«Новый Диск»]

Reply to topic
 
Author
Message

Relizer ®

Gender:

Longevity: 9 years 10 months

Posts: 233

Торрент-статистика

Post 30-Dec-2011 10:31

[Quote]

-Пять невест -Страна: Россия
Жанр: комедия
Год выпуска: 2011
Мировая премьера: 29 сентября 2011
Российская премьера: 29 сентября 2011, «Централ Партнершип»
Продолжительность: 01:43:23
Дата выхода DVD: 27 октября 2011, «Новый Диск»
Перевод: Оригинал [Лицензия]
Cубтитры: нет
Оригинальная аудиодорожка: русский-Режиссер: Карен Оганесян-В ролях: Данила Козловский, Елизавета Боярская, Светлана Ходченкова, Юлия Пересильд, Ксения Роменкова, Ирина Пегова, Артур Смольянинов,, Владимир Яглыч, Александр Лойе, Хорен Левонян-Описание: Май 1945 года. Вся страна ликует и строит планы на новую послевоенную жизнь. Счастливые воины-победители, дошедшие до Берлина, мечтают вернуться героями домой. Но их не спешат отпускать… Очень расстроены этим обстоятельством бравые летчики-истребители Вадик, Леша, Гарик, Ваня и Миша. Ведь в их отсутствие всех красивых девчонок могут разобрать!
Леше Каверину повезло — его отправляют в командировку на Родину. У друзей рождается авантюрный план: Леша должен найти друзьям невест и жениться на них, используя удостоверения ребят. И на все про все у него всего одни сутки…
-Бонусы: Анонсы- -Релиз группы: -Качество: DVD9 R5
Формат: DVD-Video
Видео кодек: MPEG2
Аудио кодек: AC3
Видео: PAL 16:9 (720x576(0.633)) MPEG Video, 25,000 кадр/сек, 6561 Кбит/сек
Аудио #1: Russian (Dolby AC3, 6 ch) 448 Кбит/сек, 48,0 КГц
Аудио #2: Russian (Dolby AC3, 2 ch) 224 Кбит/сек, 48,0 КГц--

DVDInfo

Size: 5.95 Gb ( 6 240 804 KBytes ) - DVD-9
Enabled regions: 1, 2, 3, 4, 5, 6, 7, 8
VTS_01 :
Play Length: 00:00:15
Video: PAL 4:3 (720x576) VBR
Audio:
Not specified (Dolby AC3, 2 ch)
VTS_02 :
Play Length: 00:00:08
Video: PAL 16:9 (720x576) VBR, Auto Pan&Scan
Audio:
Not specified (Dolby AC3, 2 ch)
VTS_03 :
Play Length: 01:43:23
Video: PAL 16:9 (720x576) VBR, Auto Pan&Scan
Audio:
Russian (Dolby AC3, 6 ch)
Russian (Dolby AC3, 2 ch)
VTS_04 :
Play Length: 00:00:30
Video: PAL 16:9 (720x576) VBR, Auto Pan&Scan
Audio:
Not specified (Dolby AC3, 2 ch)
Not specified (Dolby AC3, 2 ch)
VTS_05 :
Play Length: 00:01:34
Video: PAL 16:9 (720x576) VBR, Auto Pan&Scan
Audio:
Not specified (Dolby AC3, 2 ch)
VTS_06 :
Play Length: 00:02:19
Video: PAL 16:9 (720x576) VBR, Auto Pan&Scan
Audio:
Not specified (Dolby AC3, 2 ch)
VTS_07 :
Play Length: 00:02:00
Video: PAL 16:9 (720x576) VBR, Auto Pan&Scan
Audio:
Not specified (Dolby AC3, 2 ch)
VTS_08 :
Play Length: 00:01:18
Video: PAL 16:9 (720x576) VBR, Auto Pan&Scan
Audio:
Not specified (Dolby AC3, 2 ch)
VTS_09 :
Play Length: 00:01:57
Video: PAL 16:9 (720x576) VBR, Auto Pan&Scan
Audio:
Not specified (Dolby AC3, 2 ch)
Subtitles:
Russian
VTS_10 :
Play Length: 00:02:02
Video: PAL 16:9 (720x576) VBR, Auto Pan&Scan
Audio:
Not specified (Dolby AC3, 2 ch)
VTS_11 :
Play Length: 00:01:52
Video: PAL 16:9 (720x576) VBR, Auto Pan&Scan
Audio:
Not specified (Dolby AC3, 2 ch)
VTS_12 :
Play Length: 00:02:00
Video: PAL 16:9 (720x576) VBR, Auto Pan&Scan
Audio:
Not specified (Dolby AC3, 2 ch)
VTS_13 :
Play Length: 00:01:37
Video: PAL 16:9 (720x576) VBR, Auto Pan&Scan
Audio:
Not specified (Dolby AC3, 2 ch)
Menu Video:
PAL 16:9 (720x576) VBR
Auto Letterboxed
Menu English Language Unit :
Root Menu
Chapter (PTT) Menu

MediaInfo

Общее
Полное имя : G:\Новинки 2011\Pjat.nevest.2011.O.DVD.ELEKTRI4KA\VIDEO_TS\VTS_03_2.VOB
Формат : MPEG-PS
Размер файла : 1024 Мбайт
Продолжительность : 19 м.
Общий поток : 7380 Кбит/сек
Видео
Идентификатор : 224 (0xE0)
Формат : MPEG Video
Версия формата : Version 2
Профиль формата : [email protected]
Параметр BVOP формата : Да
Параметр матрицы формата : По умолчанию
Параметр GOP формата : M=3, N=12
Продолжительность : 19 м.
Вид битрейта : Переменный
Битрейт : 6561 Кбит/сек
Максимальный битрейт : 7500 Кбит/сек
Ширина : 720 пикселей
Высота : 576 пикселей
Соотношение сторон : 16:9
Частота кадров : 25,000 кадров/сек
Стандарт вещания : PAL
Цветовое пространство : YUV
Субдискретизация насыщенности : 4:2:0
Битовая глубина : 8 бит
Тип развёртки : Прогрессивная
Метод сжатия : С потерями
Бит/(Пиксели*Кадры) : 0.633
Размер потока : 910 Мбайт (89%)
Аудио #1
Идентификатор : 189 (0xBD)-128 (0x80)
Формат : AC-3
Формат/Информация : Audio Coding 3
Расширение режима : CM (complete main)
Режим смешивания : DVD-Video
Продолжительность : 19 м.
Вид битрейта : Постоянный
Битрейт : 448 Кбит/сек
Каналы : 6 каналов
Расположение каналов : Front: L C R, Side: L R, LFE
Частота : 48,0 КГц
Битовая глубина : 16 бит
Метод сжатия : С потерями
Задержка видео : -768 мс.
Размер потока : 62,2 Мбайт (6%)
Аудио #2
Идентификатор : 189 (0xBD)-129 (0x81)
Формат : AC-3
Формат/Информация : Audio Coding 3
Расширение режима : CM (complete main)
Режим смешивания : DVD-Video
Продолжительность : 19 м.
Вид битрейта : Постоянный
Битрейт : 224 Кбит/сек
Каналы : 2 канала
Расположение каналов : Front: L R
Частота : 48,0 КГц
Битовая глубина : 16 бит
Метод сжатия : С потерями
Задержка видео : -736 мс.
Размер потока : 31,1 Мбайт (3%)

Скриншоты фильма

     

_________________
Хк Локомотив #52# Макс ты был моим замечательным другом, пусть земля будет тебе пухом.. #52#07/09/2011- Обращаться с девочкой надо аккуратно, как с ёлочкой...Вырубить и отнести домой:)
Other forum [Profile] [PM]
Display posts from previous:    
Reply to topic

The time now is: Today 21:36

All times are GMT + 3 Hours



You cannot post new topics in this forum
You cannot reply to topics in this forum
You cannot edit your posts in this forum
You cannot delete your posts in this forum
You cannot vote in polls in this forum
You cannot attach files in this forum
You cannot download files in this forum