Today is a free download without charge Download

Олимпиада-80 (выпуск 22) (Олег Чуркин, Владимир Самсонов) [1981, рисованный, TVRip]

Reply to topic
 
Author
Message

Omen ®

Longevity: 7 years 11 months

Posts: 181087

Торрент-статистика

Post 13-Jun-2014 20:00

[Quote]

Олимпиада-80 (выпуск 22)
Страна: СССР
Жанр: рисованный
Продолжительность: 00:01:34
Год выпуска: 1981
Перевод: Не требуется
Русские субтитры: нет
Режиссёр: Олег Чуркин, Владимир Самсонов
Описание: Сборник микрофильмов, созданных лучшими режиссерами СССР, приуроченный к олимпийским играм в Москве 1980г. Каждый мультфильм в комической форме обыгрывает олимпийский вид спорта персонажами Фомой и Еремой.
Список серий:
22 Прыжки с трамплина - 00:01:34
Семпл: https://yadi.sk/d/igstjDdRTHmzb
Качество: TVRip
Формат: AVI
Видео: XviD, 704х528, 4:3, 25.000 fps, 2 017 Kbps
Аудио: MP3, 48.0 KHz, 2 channels, 192 Kbps
Субтитры: отсутствуют

Подробные технические данные

GeneralComplete name : C:\Users\Саша\Downloads\80.pryzhki.s.tramplina.aviFormat : AVIFormat/Info : Audio Video InterleaveFile size : 25.0 MiBDuration : 1mn 34sOverall bit rate : 2 219 KbpsWriting application : VirtualDubMod 1.5.10.3 | www.virtualdub-fr.org || (build 2550/release)Writing library : VirtualDubMod build 2550/release
VideoID : 0Format : MPEG-4 VisualFormat profile : Advanced [email protected] settings, BVOP : YesFormat settings, QPel : NoFormat settings, GMC : No warppointsFormat settings, Matrix : CustomCodec ID : XVIDCodec ID/Hint : XviDDuration : 1mn 34sBit rate : 2 017 KbpsWidth : 704 pixelsHeight : 528 pixelsDisplay aspect ratio : 4:3Frame rate : 25.000 fpsResolution : 8 bitsColorimetry : 4:2:0Scan type : ProgressiveBits/(Pixel*Frame) : 0.217Stream size : 22.7 MiB (91%)Writing library : XviD 64
AudioID : 1Format : MPEG AudioFormat version : Version 1Format profile : Layer 3Codec ID : 55Codec ID/Hint : MP3Duration : 1mn 34sBit rate mode : ConstantBit rate : 192 KbpsChannel(s) : 2 channelsSampling rate : 48.0 KHzStream size : 2.16 MiB (9%)Alignment : Aligned on interleavesInterleave, duration : 40 ms (1.01 video frame)Interleave, preload duration : 504 msWriting library : LAME3.99.k_ьЊм¬V`ў

Скриншоты



Other forum [Profile] [PM]
Display posts from previous:    
Reply to topic

The time now is: Today 04:49

All times are GMT + 3 Hours



You cannot post new topics in this forum
You cannot reply to topics in this forum
You cannot edit your posts in this forum
You cannot delete your posts in this forum
You cannot vote in polls in this forum
You cannot attach files in this forum
You cannot download files in this forum