Today is a free download without charge Download

22 минуты (Василий Сериков) [2014, Боевик, BDRemux] 1080p

Reply to topic
 
Author
Message

Varius ®

Gender:

Longevity: 11 years

Posts: 2428

Location: Hell

Торрент-статистика

Post 13-Jun-2014 06:58

[Quote]

22 минуты
«Своих не бросаем»
- Год выпуска: 2014
Производство: Россия / Централ Партнершип
Жанр: Боевик
Описание фильма:
Морпех — первогодок Саня Ежов оказывается среди пиратов на захваченном танкере. Он знает — товарищи не бросят. Ему нужно выжить и помочь своим, когда начнется штурм. Фильм основан на реальных событиях 5 мая 2010 года, когда морские пехотинцы БПК «Маршал Шапошников» освободили захваченный в водах Аденского залива российский танкер «Московский университет». У них было только 22 минуты без права на ошибку…
Режиссер: Василий Сериков
Продюсер: Алексей Сидоров
Актеры: Макар Запорожский, Денис Никифоров, Виктор Сухоруков, Екатерина Маликова, Гаэль Камилинди, Александр Галибин, Владислав Демин, Ибрагим Тооре, Софья Козко, Иван Породнов
Перевод: Не требуется (Русский язык)
Субтитры: Отсутствуют

Дата мировой премьеры: 8 мая 2014
Дата российской премьеры: 8 мая 2014, «Централ Партнершип»
Возраст: 12+
Продолжительность: 01:22:52
Качество видео: BDRemux
Видео: MPEG-4 AVC/H.264, 1920x1080, ~19950 kbps, 0.406 bit/pixel, 24 fps
Аудио 1: DTS-HD MA 5.1, 2255 kbps, 48 KHz, 16-bit [Русский]
Аудио 2: AC3 5.1, 640 kbps, 48 kHz, 16-bit [Русский]

Отчёт MediaInfo

Полное имя : D:\22.минуты.(2014).BDRemux.[1080p].mkv
Формат : Matroska
Версия формата : Version 2
Размер файла : 13,2 Гбайт
Продолжительность : 1 ч. 22 м.
Режим общего битрейта : Переменный
Общий поток : 22,9 Мбит/сек
Название фильма : 22 минуты (2014) / Lelya_K for NNM-Club
Дата кодирования : UTC 2014-06-12 16:26:14
Программа кодирования : mkvmerge v5.7.0 ('The Whirlwind') built on Aug 7 2012 14:11:40
Библиотека кодирования : libebml v1.2.3 + libmatroska v1.3.0
Attachment : Yes
Видео
Идентификатор : 1
Формат : AVC
Формат/Информация : Advanced Video Codec
Профиль формата : [url=mailto:[email protected]][email protected][/url]
Параметр CABAC формата : Да
Параметр ReFrames формата : 4 кадра
Идентификатор кодека : V_MPEG4/ISO/AVC
Продолжительность : 1 ч. 22 м.
Вид битрейта : Переменный
Битрейт : 20,2 Мбит/сек
Максимальный битрейт : 33,0 Мбит/сек
Ширина : 1920 пикселей
Высота : 1080 пикселей
Соотношение сторон : 16:9
Режим частоты кадров : Постоянный
Частота кадров : 24,000 кадра/сек
Стандарт вещания : NTSC
Цветовое пространство : YUV
Субдискретизация насыщенности : 4:2:0
Битовая глубина : 8 бит
Тип развёртки : Прогрессивная
Бит/(Пиксели*Кадры) : 0.406
Размер потока : 11,7 Гбайт (88%)
Заголовок : 22.минуты.(2014).BDRemux.[1080p]
Язык : Russian
Default : Да
Forced : Нет
Основные цвета : BT.709
Характеристики трансфера : BT.709
Коэффициенты матрицы : BT.709
Аудио #1
Идентификатор : 2
Формат : DTS
Формат/Информация : Digital Theater Systems
Профиль формата : MA / Core
Идентификатор кодека : A_DTS
Продолжительность : 1 ч. 22 м.
Вид битрейта : Переменный
Битрейт : 1561 Кбит/сек / 1510 Кбит/сек
Каналы : 6 каналов
Расположение каналов : Front: L C R, Side: L R, LFE
Частота : 48,0 КГц
Битовая глубина : 16 бит
Метод сжатия : Без потерь / Lossy
Заголовок : DTS-HD MA 5.1 / 2255 kbps / Original
Язык : Russian
Default : Да
Forced : Нет
Аудио #2
Идентификатор : 3
Формат : AC-3
Формат/Информация : Audio Coding 3
Расширение режима : CM (complete main)
Параметр Endianness формата : Big
Идентификатор кодека : A_AC3
Продолжительность : 1 ч. 22 м.
Вид битрейта : Постоянный
Битрейт : 640 Кбит/сек
Каналы : 6 каналов
Расположение каналов : Front: L C R, Side: L R, LFE
Частота : 48,0 КГц
Битовая глубина : 16 бит
Метод сжатия : С потерями
Размер потока : 379 Мбайт (3%)
Заголовок : AC3 5.1 / 640 kbps / Original
Язык : Russian
Default : Нет
Forced : Нет
Меню
00:00:00.000 : :ru Chapter 01
00:00:04.000 : :ru Chapter 02
00:08:16.166 : :ru Chapter 03
00:19:07.791 : :ru Chapter 04
00:30:32.583 : :ru Chapter 05
00:39:31.166 : :ru Chapter 06
00:54:49.500 : :ru Chapter 07
01:01:45.375 : :ru Chapter 08
01:11:12.541 : :ru Chapter 09
Скриншоты:
       
       

_________________

Создавая "Новую папку", не считайте себя Создателем - это право Вам дано Админом


Other forum [Profile] [PM]
Display posts from previous:    
Reply to topic

The time now is: Today 14:10

All times are GMT + 3 Hours



You cannot post new topics in this forum
You cannot reply to topics in this forum
You cannot edit your posts in this forum
You cannot delete your posts in this forum
You cannot vote in polls in this forum
You cannot attach files in this forum
You cannot download files in this forum