Today is a free download without charge Download

Новые Бременские (Александр Горленко)[2000.,Сказка, Музыкальный, Семейный] DVDRip

Reply to topic
 
Author
Message

sashau ®

Gender:

Longevity: 8 years 10 months

Posts: 3497

Торрент-статистика

Post 12-Jun-2014 05:14

[Quote]

Новые Бременские - Год выпуска: 2000
Производство: Россия / Кино-Мост
Жанр: Сказка, Музыкальный, Семейный
Описание:
Тридцать лет прошло с тех пор, как зрители впервые познакомились с веселым Трубадуром, прекрасной Принцессой и их четвероногими друзьями-музыкантами. Много воды утекло с тех пор, у Трубадура и Принцессы родился сын, король обеднел, зато вольготно живется теперь разбойникам, плетет интриги Атаманша, ставшая Банкиршей...
Режиссер: Александр Горленко
Персонажи: Надежда Бабкина, Антон Бизеев, Михаил Боярский, Геннадий Гладков, Филипп Киркоров, Елена Кузьмина, Георгий Мамиконов, Сергей Мазаев, Сергей Пенкин, Леонид Серебренников

Продолжительность: 00:55:59
Качество видео: DVDRip
Перевод: Не требуется (Русский)
Видеокодек: DivX 5
Битрейт видео: ~2393 Кбит/сек
Размер кадра: 720х536
Аудиокодек: AC3 5.1
Битрейт аудио: 384 Кбит/сек

MediaInfo:

Общее
Формат : AVI
Формат/Информация : Audio Video Interleave
Размер файла : 1,09 Гбайт
Продолжительность : 55 м.
Общий поток : 2786 Кбит/сек
Программа кодирования : VirtualDubMod 1.5.10.3 | www.virtualdub-fr.org || (build 2550/release)
Библиотека кодирования : VirtualDubMod build 2550/release
Видео
Идентификатор : 0
Формат : MPEG-4 Visual
Профиль формата : Advanced [email protected]
Параметр BVOP формата : 1
Параметр QPel формата : Нет
Параметр GMC формата : Без точки перехода
Параметр матрицы формата : Default (H.263)
Идентификатор кодека : DX50
Идентификатор кодека/Подсказка : DivX 5
Продолжительность : 55 м.
Битрейт : 2393 Кбит/сек
Ширина : 720 пикселей
Высота : 536 пикселей
Соотношение сторон : 4:3
Частота кадров : 25,000 кадров/сек
Цветовое пространство : YUV
Субдискретизация насыщенности : 4:2:0
Битовая глубина : 8 бит
Тип развёртки : Прогрессивная
Метод сжатия : С потерями
Бит/(Пиксели*Кадры) : 0.248
Размер потока : 958 Мбайт (86%)
Библиотека кодирования : XviD 1.2.1 (UTC 2008-12-04)
Аудио
Идентификатор : 1
Формат : AC-3
Формат/Информация : Audio Coding 3
Расширение режима : CM (complete main)
Параметр Endianness формата : Big
Идентификатор кодека : 2000
Продолжительность : 55 м.
Вид битрейта : Постоянный
Битрейт : 384 Кбит/сек
Каналы : 6 каналов
Расположение каналов : Front: L C R, Side: L R, LFE
Частота : 48,0 КГц
Битовая глубина : 16 бит
Метод сжатия : С потерями
Размер потока : 154 Мбайт (14%)
Выравнивание : Разделение по промежуткам
Продолжительность промежутка : 40 мс. (1,00 видеокадр)
Время предзагрузки промежутка : 500 мс.
Скриншоты:          
         
Other forum [Profile] [PM]
Display posts from previous:    
Reply to topic

The time now is: Today 23:50

All times are GMT + 3 Hours



You cannot post new topics in this forum
You cannot reply to topics in this forum
You cannot edit your posts in this forum
You cannot delete your posts in this forum
You cannot vote in polls in this forum
You cannot attach files in this forum
You cannot download files in this forum