Today is a free download without charge Download

Ирония судьбы, или С легким паром! (Эльдар Рязанов) [1975, СССР, лирико-музыкальная комедия, DVD9]

Reply to topic
 
Author
Message

Baracuda ®

Gender:

Longevity: 7 years 5 months

Posts: 363

Location: Киев

Торрент-статистика

Post 29-Dec-2011 14:14

[Quote]


- Страна: СССР
Студия: ТОТФ ("Мосфильм")
Жанр: Лирико-музыкальная комедия- Год выпуска: 1975
Продолжительность: 03:04:11 (01:39:51+01:24:20 - 2 серии)- Режиссер: Эльдар Рязанов
Сценарий: Эмиль Брагинский, Эльдар Рязанов
Композитор: Микаэл Таривердиев- В ролях: Андрей Мягков, Барбара Брыльска, Юрий Яковлев, Александр Ширвиндт, Георгий Бурков, Александр Белявский, Лия Ахеджакова, Валентина Талызина, Любовь Добржанская, Любовь Соколова, Ольга Науменко, Готлиб Ронинсон, Эльдар Рязанов- Описание: 31 декабря, в аккурат под Новый год, московский врач Женя Лукашин со своими друзьями пошел в баню. Ну, традиция у них такая была - попариться перед Новым годом. Вымылись, выпили... Один из них должен был лететь после этого в Ленинград, но кто именно, они уже не вспомнили. В самолет в бессознательном состоянии запихнули Женю, которого дожидалась после бани невеста в московской квартире. Прилетев в Ленинград, Женя назвал таксисту свой московский адрес (оказывается, в Ленинграде тоже есть 3-я улица Строителей), вошел в дом, открыл дверь своим ключом (который идеально подошел к чужой двери - вот вам советское типовое строительство!) и лёг отсыпаться. В это время домой вернулась хозяйка ленинградской квартиры, намереваясь встретить праздник вместе со своим женихом. Ну, что было дальше - вы все (или почти все - ) знаете...- Бонусы: Фильмографии.
Меню: Есть, анимированное, озвученное- Сэмпл: Скачать
Саундтрек: Скачать
Рейтинг: - Тип релиза: DVD9 ("Крупный план", полная реставрация)
Контейнер: DVD-Video- Видео: PAL 4:3 (720x576) VBR, 5070 kbps, 25 fps
Аудио 1: Russian (Dolby AC3, 1 ch, 224 kbps, 48 kHz)
Аудио 2: Russian (Dolby AC3, 6 ch, 448 kbps, 48 kHz)
Cубтитры: Нет--

Доп. информация

Государственная премия СССР (1977), "Лучший фильм года" (1976), Андрей Мягков - лучший актер 1976 года (по опросу журнала "Советский экран"). Песни на стихи Евгения Евтушенко, Бориса Пастернака, Беллы Ахмадулиной, Михаила Львовского, Александра Аронова, Марины Цветаевой, Владимира Киршона и Александра Кочеткова звучат в исполнении Аллы Пугачевой и Сергея Никитина. Барбара Брыльска говорит голосом Валентины Талызиной.
--

Отчет DVDInfo

Size: 7.81 Gb ( 8 185 178 KBytes ) - DVD-9
Enabled regions: 1, 2, 3, 4, 5, 6
VTS_01 :
Play Length: 00:00:51
Video: PAL 4:3 (720x576) VBR
VTS_02 :
Play Length: 01:39:51
Video: PAL 4:3 (720x576) VBR
Audio:
Russian (Dolby AC3, 1 ch)
Russian (Dolby AC3, 6 ch)
VTS_03 :
Play Length: 01:24:20
Video: PAL 4:3 (720x576) VBR
Audio:
Russian (Dolby AC3, 1 ch)
Russian (Dolby AC3, 6 ch)
Menu Video:
PAL 4:3 (720x576) VBR
Menu Subtitles:
Not specified
Menu English Language Unit :
Root Menu
--

Отчет MediaInfo

Полное имя : \Ironoja\VIDEO_TS\VTS_02_1.VOB
Формат : MPEG-PS
Размер файла : 1024 Мбайт
Продолжительность : 24 м.
Общий поток : 5856 Кбит/сек
Видео
Идентификатор : 224 (0xE0)
Формат : MPEG Video
Версия формата : Version 2
Профиль формата : [email protected]
Параметр BVOP формата : Да
Параметр матрицы формата : Выборочная
Параметр GOP формата : M=3, N=15
Продолжительность : 24 м.
Битрейт : 5067 Кбит/сек
Максимальный битрейт : 5075 Кбит/сек
Ширина : 720 пикселей
Высота : 576 пикселей
Соотношение сторон : 4:3
Частота кадров : 25,000 кадров/сек
Стандарт вещания : PAL
Цветовое пространство : YUV
Субдискретизация насыщенности : 4:2:0
Битовая глубина : 8 бит
Тип развёртки : Чересстрочная
Порядок развёртки : Верхнее поле первое
Метод сжатия : С потерями
Бит/(Пиксели*Кадры) : 0.489
Размер потока : 886 Мбайт (87%)
Аудио #1
Идентификатор : 189 (0xBD)-128 (0x80)
Формат : AC-3
Формат/Информация : Audio Coding 3
Расширение режима : CM (complete main)
Режим смешивания : DVD-Video
Продолжительность : 24 м.
Вид битрейта : Постоянный
Битрейт : 224 Кбит/сек
Каналы : 1 канал
Расположение каналов : Front: C
Частота : 48,0 КГц
Битовая глубина : 16 бит
Метод сжатия : С потерями
Задержка видео : -80 мс.
Размер потока : 39,2 Мбайт (4%)
Аудио #2
Идентификатор : 189 (0xBD)-129 (0x81)
Формат : AC-3
Формат/Информация : Audio Coding 3
Расширение режима : CM (complete main)
Режим смешивания : DVD-Video
Продолжительность : 24 м.
Вид битрейта : Постоянный
Битрейт : 448 Кбит/сек
Каналы : 6 каналов
Расположение каналов : Front: L C R, Side: L R, LFE
Частота : 48,0 КГц
Битовая глубина : 16 бит
Метод сжатия : С потерями
Задержка видео : -80 мс.
Размер потока : 78,3 Мбайт (8%)
--

Скриншоты

           --

Скриншоты меню

       

Скриншоты доп. материалов

   

Скриншоты названия

   
--

_________________


Last edited by Baracuda on 2011-12-29 15:34; edited 2 times in total
Other forum [Profile] [PM]

uschakov.yura

Gender:

Longevity: 6 years 11 months

Posts: 404

Location: Рыбинск Ярославской области

Торрент-статистика

Post 13-Dec-2012 22:52 (after 11 months 15 days)

[Quote]

И каждый раз на век прощайтесь,
Когда уходите на миг
uschakov.yura

_________________
uschakov.yura
Other forum [Profile] [PM]
Display posts from previous:    
Reply to topic

The time now is: Today 13:33

All times are GMT + 3 Hours



You cannot post new topics in this forum
You cannot reply to topics in this forum
You cannot edit your posts in this forum
You cannot delete your posts in this forum
You cannot vote in polls in this forum
You cannot attach files in this forum
You cannot download files in this forum