Today is a free download without charge Download

Клабуш (Аво Пайстик) [1978, Рисованный мультфильм, DVDRip]

Reply to topic
 
Author
Message

Omen ®

Longevity: 7 years 11 months

Posts: 181087

Торрент-статистика

Post 10-Jun-2014 23:00

[Quote]

Клабуш
Страна: СССР
Жанр: Рисованный мультфильм
Продолжительность: 00:09:47
Год выпуска: 1978
Перевод: Не требуется
Русские субтитры: нет
Режиссёр: Аво Пайстик
Роли озвучивали: Эстонские артисты
Описание: Студия "Таллинфильм". История чудесных превращений
Качество: DVDRip
Формат: AVI
Видео: 656x480 00:09:47 25fps XviD 2Mbps
Аудио: 48KHz 00:09:47 Stereo 256Kbps
Субтитры: Отсутствуют

Подробные технические данные

ОбщееПолное имя : D:\ИЗБРАННОЕ ВИДЕО\klaabu.aviФормат : AVIФормат/Информация : Audio Video InterleaveРазмер файла : 165 МбайтПродолжительность : 9 м. 47 с.Общий поток : 2355 Кбит/секБиблиотека кодирования : VirtualDub build 32842/release
ВидеоИдентификатор : 0Формат : MPEG-4 VisualПрофиль формата : Advanced [email protected]Параметр BVOP формата : 1Параметр QPel формата : НетПараметр GMC формата : Без точки переходаПараметр матрицы формата : Default (MPEG)Идентификатор кодека : XVIDИдентификатор кодека/Подсказка : XviDПродолжительность : 9 м. 47 с.Битрейт : 2089 Кбит/секШирина : 656 пикселейВысота : 480 пикселейСоотношение сторон : 4:3Частота кадров : 25,000 кадров/секЦветовое пространство : YUVСубдискретизация насыщенности : 4:2:0Битовая глубина : 8 битТип развёртки : ПрогрессивнаяМетод сжатия : С потерямиБит/(Пиксели*Кадры) : 0.265Размер потока : 146 Мбайт (89%)Библиотека кодирования : XviD 64
АудиоИдентификатор : 1Формат : AC-3Формат/Информация : Audio Coding 3Расширение режима : CM (complete main)Параметр Endianness формата : BigИдентификатор кодека : 2000Продолжительность : 9 м. 47 с.Вид битрейта : ПостоянныйБитрейт : 256 Кбит/секКаналы : 2 каналаРасположение каналов : Front: L RЧастота : 48,0 КГцБитовая глубина : 16 битМетод сжатия : С потерямиРазмер потока : 17,9 Мбайт (11%)Выравнивание : Разделение по промежуткамПродолжительность промежутка : 40 мс. (1,00 видеокадр)Время предзагрузки промежутка : 500 мс.

Скриншоты






Other forum [Profile] [PM]
Display posts from previous:    
Reply to topic

The time now is: Today 08:15

All times are GMT + 3 Hours



You cannot post new topics in this forum
You cannot reply to topics in this forum
You cannot edit your posts in this forum
You cannot delete your posts in this forum
You cannot vote in polls in this forum
You cannot attach files in this forum
You cannot download files in this forum