Today is a free download without charge Download

(OST, Jazz, Covers) [CD] All That Jazz - Ghibli Jazz 2 - 2010, FLAC (tracks+.cue), lossless

Reply to topic
 
Author
Message

Omen ®

Longevity: 9 years

Posts: 181086

Торрент-статистика

Post 09-Jun-2014 23:00

[Quote]

All That Jazz - Ghibli Jazz 2
Жанр: OST, Jazz, Covers
Носитель: CD
Страна-производитель диска: Япония
Год издания: 2010
Издатель (лейбл): Srevoc
Номер по каталогу: SRVC-1024
Аудио кодек: FLAC (*.flac)
Тип рипа: tracks+.cue
Битрейт аудио: lossless
Продолжительность: 55:31
Источник (релизер): WaruSaru (what)
Наличие сканов в содержимом раздачи: нет
Треклист:
01. Kaze no Toorimichi (Totoro) (3:35)
02. Hareta Hi ni (Kiki) (4:07)
03. Sampo (Totoro) (2:45)
04. Sora kara Futtekita Shoujo (Laputa) (4:35)
05. Meguru Kisetsu (Kiki) (4:07)
06. Ashitaka Sekki (Mononoke) (4:21)
07. Ai wa Hana, Kimi wa sono Tane (Yesterday) (3:49)
08. Nekobasu (Totoro) (3:54)
09. Teru no Uta (Earthsea) (5:06)
10. Ano Natsu he (Spirited) (4:28)
11. Itsumo Nando Demo (Spirited) (3:49)
12. Kaze no Densetsu (Nausicaa) (3:34)
13. Arrietty's Song (Arrietty) (3:39)
14. Sekai no Yakusoku (Howl) (3:42)

Лог создания рипа

Exact Audio Copy V1.0 beta 3 from 29. August 2011
EAC extraction logfile from 9. June 2014, 17:12
ALL THAT JAZZ / ジブリ・ジャズ2
Used drive : Optiarc DVD RW AD-7240S Adapter: 3 ID: 1
Read mode : SecureUtilize accurate stream : YesDefeat audio cache : YesMake use of C2 pointers : No
Read offset correction : 48Overread into Lead-In and Lead-Out : NoFill up missing offset samples with silence : YesDelete leading and trailing silent blocks : NoNull samples used in CRC calculations : YesUsed interface : Native Win32 interface for Win NT & 2000Gap handling : Appended to previous track
Used output format : User Defined EncoderSelected bitrate : 1024 kBit/sQuality : HighAdd ID3 tag : NoCommand line compressor : C:\Program Files (x86)\FLAC Frontend\tools\flac.exeAdditional command line options : -8 -V -T "ARTIST=%artist%" -T "TITLE=%title%" -T "ALBUM=%albumtitle%" -T "DATE=%year%" -T "TRACKNUMBER=%tracknr%" -T "GENRE=%genre%" -T "PERFORMER=%albuminterpret%" -T "COMPOSER=%composer%" %haslyrics%--tag-from-file=LYRICS="%lyricsfile%"%haslyrics% -T "ALBUMARTIST=%albumartist%" -T "DISCNUMBER=%cdnumber%" -T "TOTALDISCS=%totalcds%" -T "TOTALTRACKS=%numtracks%" -T "COMMENT=%comment%" %source% -o %dest%
TOC of the extracted CD
Track | Start | Length | Start sector | End sector --------------------------------------------------------- 1 | 0:00.00 | 3:35.14 | 0 | 16138 2 | 3:35.14 | 4:06.65 | 16139 | 34653 3 | 7:42.04 | 2:44.61 | 34654 | 47014 4 | 10:26.65 | 4:34.67 | 47015 | 67631 5 | 15:01.57 | 4:07.14 | 67632 | 86170 6 | 19:08.71 | 4:20.50 | 86171 | 105720 7 | 23:29.46 | 3:48.65 | 105721 | 122885 8 | 27:18.36 | 3:53.68 | 122886 | 140428 9 | 31:12.29 | 5:05.46 | 140429 | 163349 10 | 36:18.00 | 4:27.41 | 163350 | 183415 11 | 40:45.41 | 3:49.31 | 183416 | 200621 12 | 44:34.72 | 3:34.29 | 200622 | 216700 13 | 48:09.26 | 3:38.45 | 216701 | 233095 14 | 51:47.71 | 3:42.30 | 233096 | 249775
Track 1
Filename D:\שירים\What.CD\songs\All That Jazz 2 Flac Log (100%) + Cue\01 風の通り道 (となりのトトロ).wav
Pre-gap length 0:00:02.00
Peak level 98.8 % Extraction speed 2.3 X Track quality 100.0 % Test CRC 0A010740 Copy CRC 0A010740 Cannot be verified as accurate (confidence 9) [7B0F8E61], AccurateRip returned [71AC10AD] (AR v2) Copy OK
Track 2
Filename D:\שירים\What.CD\songs\All That Jazz 2 Flac Log (100%) + Cue\02 晴れた日に (魔女の宅急便).wav
Pre-gap length 0:00:00.65
Peak level 99.9 % Extraction speed 2.6 X Track quality 100.0 % Test CRC A34F7CED Copy CRC A34F7CED Cannot be verified as accurate (confidence 9) [EE47D9AF], AccurateRip returned [E73353B0] (AR v2) Copy OK
Track 3
Filename D:\שירים\What.CD\songs\All That Jazz 2 Flac Log (100%) + Cue\03 さんぽ (となりのトトロ).wav
Pre-gap length 0:00:00.66
Peak level 99.9 % Extraction speed 2.7 X Track quality 100.0 % Test CRC AA596636 Copy CRC AA596636 Cannot be verified as accurate (confidence 9) [98A18BC2], AccurateRip returned [6D3F209A] (AR v2) Copy OK
Track 4
Filename D:\שירים\What.CD\songs\All That Jazz 2 Flac Log (100%) + Cue\04 空から降ってきた少女 (天空の城ラピュタ).wav
Peak level 98.8 % Extraction speed 2.7 X Track quality 99.9 % Test CRC 7FB273E0 Copy CRC 7FB273E0 Cannot be verified as accurate (confidence 9) [1B8AE2B3], AccurateRip returned [91EF03B9] (AR v2) Copy OK
Track 5
Filename D:\שירים\What.CD\songs\All That Jazz 2 Flac Log (100%) + Cue\05 めぐる季節 (魔女の宅急便).wav
Pre-gap length 0:00:00.17
Peak level 99.9 % Extraction speed 3.2 X Track quality 100.0 % Test CRC 46687562 Copy CRC 46687562 Cannot be verified as accurate (confidence 9) [FDC67BD2], AccurateRip returned [5ED765F1] (AR v2) Copy OK
Track 6
Filename D:\שירים\What.CD\songs\All That Jazz 2 Flac Log (100%) + Cue\06 アシタカせっ記 (もののけ姫).wav
Peak level 98.8 % Extraction speed 3.5 X Track quality 100.0 % Test CRC 3557F0EE Copy CRC 3557F0EE Cannot be verified as accurate (confidence 9) [FF2437EF], AccurateRip returned [AFA7B2A1] (AR v2) Copy OK
Track 7
Filename D:\שירים\What.CD\songs\All That Jazz 2 Flac Log (100%) + Cue\07 愛は花、君はその種子 (おもひでぽろぽろ).wav
Pre-gap length 0:00:01.37
Peak level 99.9 % Extraction speed 3.6 X Track quality 100.0 % Test CRC EF6A93AE Copy CRC EF6A93AE Cannot be verified as accurate (confidence 9) [2ECB64F9], AccurateRip returned [A49BA816] (AR v2) Copy OK
Track 8
Filename D:\שירים\What.CD\songs\All That Jazz 2 Flac Log (100%) + Cue\08 ねこバス (となりのトトロ).wav
Pre-gap length 0:00:00.25
Peak level 98.4 % Extraction speed 3.7 X Track quality 100.0 % Test CRC E025D9DE Copy CRC E025D9DE Cannot be verified as accurate (confidence 9) [5EF7F332], AccurateRip returned [DF343CE6] (AR v2) Copy OK
Track 9
Filename D:\שירים\What.CD\songs\All That Jazz 2 Flac Log (100%) + Cue\09 テルーの唄 (ゲド戦記).wav
Pre-gap length 0:00:00.69
Peak level 99.9 % Extraction speed 4.1 X Track quality 100.0 % Test CRC 1B5D0BF2 Copy CRC 1B5D0BF2 Cannot be verified as accurate (confidence 9) [7ECB6360], AccurateRip returned [79C41960] (AR v2) Copy OK
Track 10
Filename D:\שירים\What.CD\songs\All That Jazz 2 Flac Log (100%) + Cue\10 あの夏へ (千と千尋の神隠し).wav
Pre-gap length 0:00:00.13
Peak level 98.8 % Extraction speed 3.7 X Track quality 99.9 % Test CRC 2D377F79 Copy CRC 2D377F79 Cannot be verified as accurate (confidence 9) [39C86EDD], AccurateRip returned [E1AF77EC] (AR v2) Copy OK
Track 11
Filename D:\שירים\What.CD\songs\All That Jazz 2 Flac Log (100%) + Cue\11 いつも何度でも (千と千尋の神隠し).wav
Pre-gap length 0:00:01.10
Peak level 97.3 % Extraction speed 3.7 X Track quality 99.9 % Test CRC 586C5279 Copy CRC 586C5279 Cannot be verified as accurate (confidence 9) [C2E50D4E], AccurateRip returned [4509BA76] (AR v2) Copy OK
Track 12
Filename D:\שירים\What.CD\songs\All That Jazz 2 Flac Log (100%) + Cue\12 風の伝説 (風の谷のナウシカ).wav
Pre-gap length 0:00:02.13
Peak level 98.8 % Extraction speed 4.3 X Track quality 100.0 % Test CRC 28014ADC Copy CRC 28014ADC Cannot be verified as accurate (confidence 9) [15793C0A], AccurateRip returned [E86FAA07] (AR v2) Copy OK
Track 13
Filename D:\שירים\What.CD\songs\All That Jazz 2 Flac Log (100%) + Cue\13 Arrietty's Song (借りぐらしのアリエッティー).wav
Pre-gap length 0:00:01.52
Peak level 98.8 % Extraction speed 4.5 X Track quality 100.0 % Test CRC 8AB6F6E0 Copy CRC 8AB6F6E0 Cannot be verified as accurate (confidence 9) [DCC747A0], AccurateRip returned [E498BCB6] (AR v2) Copy OK
Track 14
Filename D:\שירים\What.CD\songs\All That Jazz 2 Flac Log (100%) + Cue\14 世界の約束 (ハウルの動く城).wav
Pre-gap length 0:00:00.41
Peak level 99.9 % Extraction speed 4.6 X Track quality 100.0 % Test CRC 0555622C Copy CRC 0555622C Cannot be verified as accurate (confidence 9) [44585A36], AccurateRip returned [7E46714B] (AR v2) Copy OK
No tracks could be verified as accurateYou may have a different pressing from the one(s) in the database
No errors occurred
End of status report
---- CUETools DB Plugin V2.1.3
[CTDB TOCID: WC05Co1ciPhuUEC62teoFwLRqbY-] found, Submit result: WC05Co1ciPhuUEC62teoFwLRqbY- has been confirmed[20837f19] (14/14) Accurately ripped
==== Log checksum 7439C887F59871B2C51FACF40B036EA27B2FB1D235205265D3810F1218A10E14 ====

Содержание индексной карты (.CUE)

REM GENRE JazzREM DATE 2010REM DISCID B50D020EREM COMMENT "ExactAudioCopy v1.0b3"PERFORMER "All That Jazz"TITLE "Ghibli Jazz 2"FILE "01 - Kaze no Toorimichi (Totoro).wav" WAVE TRACK 01 AUDIO TITLE "Kaze no Toorimichi (Totoro)" PERFORMER "All That Jazz" INDEX 01 00:00:00 TRACK 02 AUDIO TITLE "Hareta Hi ni (Kiki)" PERFORMER "All That Jazz" INDEX 00 03:34:40FILE "02 - Hareta Hi ni (Kiki).wav" WAVE INDEX 01 00:00:00 TRACK 03 AUDIO TITLE "Sampo (Totoro)" PERFORMER "All That Jazz" INDEX 00 04:06:15FILE "03 - Sampo (Totoro).wav" WAVE INDEX 01 00:00:00FILE "04 - Sora kara Futtekita Shoujo (Laputa).wav" WAVE TRACK 04 AUDIO TITLE "Sora kara Futtekita Shoujo (Laputa)" PERFORMER "All That Jazz" INDEX 01 00:00:00 TRACK 05 AUDIO TITLE "Meguru Kisetsu (Kiki)" PERFORMER "All That Jazz" INDEX 00 04:34:54FILE "05 - Meguru Kisetsu (Kiki).wav" WAVE INDEX 01 00:00:00FILE "06 - Ashitaka Sekki (Mononoke).wav" WAVE TRACK 06 AUDIO TITLE "Ashitaka Sekki (Mononoke)" PERFORMER "All That Jazz" INDEX 01 00:00:00 TRACK 07 AUDIO TITLE "Ai wa Hana, Kimi wa sono Tane (Yesterday)" PERFORMER "All That Jazz" INDEX 00 04:19:22FILE "07 - Ai wa Hana, Kimi wa sono Tane (Yesterday).wav" WAVE INDEX 01 00:00:00 TRACK 08 AUDIO TITLE "Nekobasu (Totoro)" PERFORMER "All That Jazz" INDEX 00 03:48:46FILE "08 - Nekobasu (Totoro).wav" WAVE INDEX 01 00:00:00 TRACK 09 AUDIO TITLE "Teru no Uta (Earthsea)" PERFORMER "All That Jazz" INDEX 00 03:53:16FILE "09 - Teru no Uta (Earthsea).wav" WAVE INDEX 01 00:00:00 TRACK 10 AUDIO TITLE "Ano Natsu he (Spirited)" PERFORMER "All That Jazz" INDEX 00 05:05:36FILE "10 - Ano Natsu he (Spirited).wav" WAVE INDEX 01 00:00:00 TRACK 11 AUDIO TITLE "Itsumo Nando Demo (Spirited)" PERFORMER "All That Jazz" INDEX 00 04:26:33FILE "11 - Itsumo Nando Demo (Spirited).wav" WAVE INDEX 01 00:00:00 TRACK 12 AUDIO TITLE "Kaze no Densetsu (Nausicaa)" PERFORMER "All That Jazz" INDEX 00 03:47:21FILE "12 - Kaze no Densetsu (Nausicaa).wav" WAVE INDEX 01 00:00:00 TRACK 13 AUDIO TITLE "Arrietty's Song (Arrietty)" PERFORMER "All That Jazz" INDEX 00 03:32:65FILE "13 - Arrietty's Song (Arrietty).wav" WAVE INDEX 01 00:00:00 TRACK 14 AUDIO TITLE "Sekai no Yakusoku (Howl)" PERFORMER "All That Jazz" INDEX 00 03:38:14FILE "14 - Sekai no Yakusoku (Howl).wav" WAVE INDEX 01 00:00:00

Отчет CUETools

[CUETools log; Date: 09.06.2014 21:33:32; Version: 2.1.4][CTDB TOCID: WC05Co1ciPhuUEC62teoFwLRqbY-] found.Track | CTDB Status 1 | (15/15) Accurately ripped 2 | (15/15) Accurately ripped 3 | (15/15) Accurately ripped 4 | (15/15) Accurately ripped 5 | (15/15) Accurately ripped 6 | (15/15) Accurately ripped 7 | (15/15) Accurately ripped 8 | (15/15) Accurately ripped 9 | (15/15) Accurately ripped 10 | (15/15) Accurately ripped 11 | (15/15) Accurately ripped 12 | (15/15) Accurately ripped 13 | (15/15) Accurately ripped 14 | (15/15) Accurately ripped[AccurateRip ID: 001c7f58-0131f898-b50d020e] found.Track [ CRC | V2 ] Status 01 [72be0b07|7b0f8e61] (00+00/12) No match 02 [65de524e|ee47d9af] (00+00/12) No match 03 [788b6be4|98a18bc2] (00+00/12) No match 04 [0d9e8c85|1b8ae2b3] (00+00/12) No match 05 [85ffb3ec|fdc67bd2] (00+00/12) No match 06 [77b00c0e|ff2437ef] (00+00/12) No match 07 [116e79ce|2ecb64f9] (00+00/12) No match 08 [62206b12|5ef7f332] (00+00/12) No match 09 [3b3f251c|7ecb6360] (00+00/12) No match 10 [7b955943|39c86edd] (00+00/12) No match 11 [383e6366|c2e50d4e] (00+00/12) No match 12 [3d13a2cc|15793c0a] (00+00/12) No match 13 [64472ac3|dcc747a0] (00+00/12) No match 14 [6a2d1339|44585a36] (00+00/12) No matchOffsetted by 18: 01 [6e588559] (03/12) Accurately ripped 02 [6496c38c] (03/12) Accurately ripped 03 [510a6394] (03/12) Accurately ripped 04 [8a7de2d9] (03/12) Accurately ripped 05 [ecd50538] (03/12) Accurately ripped 06 [2e425eba] (03/12) Accurately ripped 07 [8c9daed0] (03/12) Accurately ripped 08 [e7dd6a86] (03/12) Accurately ripped 09 [3d7265c2] (03/12) Accurately ripped 10 [29bd79e7] (03/12) Accurately ripped 11 [bfb9c7c6] (03/12) Accurately ripped 12 [15072aea] (03/12) Accurately ripped 13 [713add63] (03/12) Accurately ripped 14 [a95a862f] (03/12) Accurately ripped
Track Peak [ CRC32 ] [W/O NULL] [ LOG ] -- 99,9 [7FB298CF] [621C634C] 01 98,8 [0A010740] [9D53EA85] CRC32 02 99,9 [A34F7CED] [49AEB9AC] CRC32 03 99,9 [AA596636] [72A1EEF9] CRC32 04 98,8 [7FB273E0] [41628A03] CRC32 05 99,9 [46687562] [75CC2FD4] CRC32 06 98,8 [3557F0EE] [166D5336] CRC32 07 99,9 [EF6A93AE] [03AA99C5] CRC32 08 98,4 [E025D9DE] [74F8ED11] CRC32 09 99,9 [1B5D0BF2] [36BBE831] CRC32 10 98,8 [2D377F79] [AD4B2CF0] CRC32 11 97,3 [586C5279] [62E07F86] CRC32 12 98,8 [28014ADC] [EEE97026] CRC32 13 98,8 [8AB6F6E0] [3C6DA40D] CRC32 14 99,9 [0555622C] [225EB6DE] CRC32
Other forum [Profile] [PM]
Display posts from previous:    
Reply to topic

The time now is: Today 17:40

All times are GMT + 3 Hours



You cannot post new topics in this forum
You cannot reply to topics in this forum
You cannot edit your posts in this forum
You cannot delete your posts in this forum
You cannot vote in polls in this forum
You cannot attach files in this forum
You cannot download files in this forum