Today is a free download without charge Download

Не покидай меня, любовь. (Роман Фокин) [2014, Россия, мелодрама, HDTVRip 720i]

Reply to topic
 
Author
Message

Omen ®

Longevity: 8 years 10 months

Posts: 181086

Торрент-статистика

Post 07-Jun-2014 20:50

[Quote]

Не покидай меня, любовь. Страна: Россия
Студия: Медиа Prof Союз
Жанр: мелодрама
Год выпуска: 2014
Продолжительность: 01:35:11
Перевод: Не требуется
Cубтитры: нет
Режиссер: Роман Фокин
В ролях: Яна Шивкова, Владимир Шевельков, Максим Коновалов, Анна Банщикова, Никита Степанов, Василий Бойдак, Алексей Шеметовец, Василий Кубекин, Никита Скоморох, Алеся Пуховая
Описание: Любе 35 лет, и 15 из них она прожила одиноко, одна поднимала сына Степана. В деревне Любу уважают и любят и часто приходят к ней за помощью советом — Люба работает секретарем сельсовета. Привычный жизненный уклад Любы нарушает возвращение ее давнего ухажера — Виктора. Он пребывает в село в качестве нового участкового и тут же начинает ухлёстывать за Любой.
запись со спутника телеканал Россия HD
премьера (РФ) - 10 марта 2014

Сэмпл: http://rusfolder.com/40928977
Тип релиза: HDTVRip 720i
Контейнер: TS
Видео: AVC/H.264, PAL, 1280x720 (16:9), 8000 Кбит/сек, 25.000 fps
Аудио: русский, Mp2, 48000 Hz, 192 Кбит/сек, 2 ch

MediaInfo

Видео
Идентификатор : 306 (0x132)
Идентификатор меню : 1 (0x1)
Формат : AVC
Формат/Информация : Advanced Video Codec
Профиль формата : [email protected]
Параметр CABAC формата : Да
Параметр ReFrames формата : 3 кадра
Идентификатор кодека : 27
Продолжительность : 1 ч. 35 м.
Вид битрейта : Постоянный
Битрейт : 8000 Кбит/сек
Ширина : 1280 пикселей
Высота : 720 пикселей
Соотношение сторон : 16:9
Частота кадров : 25,000 кадров/сек
Стандарт вещания : PAL
Цветовое пространство : YUV
Субдискретизация насыщенности : 4:2:0
Битовая глубина : 8 бит
Тип развёртки : Чересстрочная
Порядок развёртки : Верхнее поле первое
Бит/(Пиксели*Кадры) : 0.347
Размер потока : 5,24 Гбайт (93%)
Основные цвета : BT.709
Характеристики трансфера : BT.709
Коэффициенты матрицы : BT.709
Аудио
Идентификатор : 406 (0x196)
Идентификатор меню : 1 (0x1)
Формат : MPEG Audio
Версия формата : Version 1
Профиль формата : Layer 2
Идентификатор кодека : 3
Продолжительность : 1 ч. 35 м.
Вид битрейта : Постоянный
Битрейт : 192 Кбит/сек
Каналы : 2 канала
Частота : 48,0 КГц
Метод сжатия : С потерями
Задержка видео : 40 мс.
Размер потока : 131 Мбайт (2%)

Скриншот c названием фильма

Скриншоты

Other forum [Profile] [PM]

uschakov.yura

Gender:

Longevity: 9 years 5 months

Posts: 400

Location: Рыбинск Ярославской области

Торрент-статистика

Post 07-Jun-2014 21:34 (after 44 minutes)

[Quote]

Omen, Вы иначе не можете - у Вас стабильно Россия зарубежное кино, клятвенно обещаю не заглядывать более на ваши ссылки (просил исправить 15 раз и Вы остаётесь верны своим традициям). Больше не буду Вас беспокоить. Добрые пожелания.

_________________
uschakov.yura
Other forum [Profile] [PM]
Display posts from previous:    
Reply to topic

The time now is: Today 18:23

All times are GMT + 3 Hours



You cannot post new topics in this forum
You cannot reply to topics in this forum
You cannot edit your posts in this forum
You cannot delete your posts in this forum
You cannot vote in polls in this forum
You cannot attach files in this forum
You cannot download files in this forum