Today is a free download without charge Download

Малыш и Карлсон, который живет на крыше (Маргарита Микаэлян, Валентин Плучек) [1971.,Детский, Комедия]DVDRip

Reply to topic
 
Author
Message

sashau ®

Gender:

Longevity: 9 years 6 months

Posts: 3497

Торрент-статистика

Post 07-Jun-2014 15:37

[Quote]

Малыш и Карлсон, который живет на крыше - Год выпуска: 1971
Жанр: Детский, Комедия
Описание фильма:
Озорной Карлсон и доверчивый Малыш — герои всем известной сказки. Карлсон очень любит пошалить, а на все последствия шалостей у него есть «фирменная» отговорка: «Пустяки, дело то житейское!». Правда, родители Малыша так не считают, но все равно, скучать со своим летающим другом ему не приходится. То, лазая по крышам, друзья предотвращают крупную кражу, то вместе укрощают злую домомучительницу.
Режиссер: Маргарита Микаэлян, Валентин Плучек
Актеры: Михаил Защипин, Спартак Мишулин, Татьяна Пельтцер, Наталья Защипина, Полина Казакевич, Юрий Соковнин, Андрей Миронов, Елена Юргенсон, Константин Райкин
Продолжительность: 01:31:05
Качество видео: DVDRip

Видеокодек: Xvid
Битрейт видео: ~1886 Кбит/сек
Размер кадра: 704x512
Аудиокодек: AC3 2.0
Битрейт аудио: 256 Кбит/сек

MediaInfo:

Общее
Полное имя : D:\ФИЛЬМЫ\Малыш и Карлсон, который живет на крыше_1971_DVDRip.avi
Формат : AVI
Формат/Информация : Audio Video Interleave
Размер файла : 1,37 Гбайт
Продолжительность : 1 ч. 31 м.
Общий поток : 2152 Кбит/сек
Программа кодирования : Nandub v1.0rc2
Библиотека кодирования : Nandub build 1852/release
Видео
Идентификатор : 0
Формат : MPEG-4 Visual
Профиль формата : Advanced [email protected]
Параметр BVOP формата : 2
Параметр QPel формата : Нет
Параметр GMC формата : Без точки перехода
Параметр матрицы формата : Default (MPEG)
Идентификатор кодека : XVID
Идентификатор кодека/Подсказка : XviD
Продолжительность : 1 ч. 31 м.
Битрейт : 1886 Кбит/сек
Ширина : 704 пикселя
Высота : 512 пикселей
Соотношение сторон : 1,375
Частота кадров : 25,000 кадров/сек
Цветовое пространство : YUV
Субдискретизация насыщенности : 4:2:0
Битовая глубина : 8 бит
Тип развёртки : Прогрессивная
Метод сжатия : С потерями
Бит/(Пиксели*Кадры) : 0.209
Размер потока : 1,20 Гбайт (88%)
Библиотека кодирования : XviD 1.2.1 (UTC 2008-12-04)
Аудио
Идентификатор : 1
Формат : AC-3
Формат/Информация : Audio Coding 3
Расширение режима : CM (complete main)
Параметр Endianness формата : Big
Идентификатор кодека : 2000
Продолжительность : 1 ч. 31 м.
Вид битрейта : Постоянный
Битрейт : 256 Кбит/сек
Каналы : 2 канала
Расположение каналов : Front: L R
Частота : 48,0 КГц
Битовая глубина : 16 бит
Метод сжатия : С потерями
Размер потока : 167 Мбайт (12%)
Выравнивание : Разделение по промежуткам
Продолжительность промежутка : 40 мс. (1,00 видеокадр)
Время предзагрузки промежутка : 500 мс.
Скриншоты:
           
Other forum [Profile] [PM]
Display posts from previous:    
Reply to topic

The time now is: Today 00:00

All times are GMT + 3 Hours



You cannot post new topics in this forum
You cannot reply to topics in this forum
You cannot edit your posts in this forum
You cannot delete your posts in this forum
You cannot vote in polls in this forum
You cannot attach files in this forum
You cannot download files in this forum