Today is a free download without charge Download

Заяц / Janes (Андо Кесккюла) [1976, Рисованный мультфильм, SATRip]

Reply to topic
 
Author
Message

Omen ®

Longevity: 7 years 11 months

Posts: 181087

Торрент-статистика

Post 31-May-2014 23:00

[Quote]

Заяц / Janes
Страна: СССР
Жанр: Рисованный мультфильм
Продолжительность: 00:09:55
Год выпуска: 1976
Русские субтитры: нет
Режиссёр: Андо Кесккюла
Описание: Фантастическая мультипликационнная повесть известного эстонского писателя и поэта Яана Каплинского о механическом Зайце - роботе, который создал в городе настоящую кутерьму, повинуясь своим природным заячьим инстинктам. В одном из крупных городов ученые создали необычного робота - механического зайца для исследования дикой природы. Ученые планировали поселить его в самом настоящем лесу и наделили многими чертами обычного лесного зайчишки. Но механический заяц напоминал своего лесного прообраза весьма отдаленно. Заметно, что он состоит из разного рода шестеренок, колёс, рычажков, приводов и моторов. Он был сделан сильнее и больше обычного зайца, чтобы увеличить его жизненную силу в природных условиях. Но кое в чем оба они были похожи: роботу очень хотелось резвиться, прыгать и играть - точно также как и обычному косому! Лаборатория показалась ему очень скучным местом для этого занятия. И как только представился случай, механический заяц выпрыгнул в окно и оказался один в большом городе - в месте, к существованию в котором он был абсолютно неприспособлен. Его неожиданное "пришествие" вызвало в городе настоящий хаос... Мультфильм затрагивает тему о сложностях взаимоотношениях между природой и технологий.
Доп. информация: «Таллиннфильм»
Качество: SATRip
Формат: AVI
Видео: 720x544 (1.32:1), 25 fps, XviD MPEG-4 ~2382 kbps avg, 0.24 bit/pixel
Аудио: 48 kHz, MPEG Layer 3, 2 ch, ~224.00 kbps avg
Субтитры: нет

Подробные технические данные

Format : AVIFormat/Info : Audio Video InterleaveFile size : 186 MiBDuration : 9mn 55sOverall bit rate : 2 617 KbpsWriting application : TMPGEnc Video Mastering Works 5 Version. 5.0.5.32Writing library : TMPGEnc Video Mastering Works 5 Version. 5.0.5.32
VideoID : 0Format : MPEG-4 VisualFormat profile : Advanced [email protected] settings, BVOP : 2Format settings, QPel : NoFormat settings, GMC : No warppointsFormat settings, Matrix : Default (MPEG)Muxing mode : Packed bitstreamCodec ID : XVIDCodec ID/Hint : XviDDuration : 9mn 55sBit rate : 2 380 KbpsWidth : 720 pixelsHeight : 544 pixelsDisplay aspect ratio : 4:3Frame rate : 25.000 fpsColor space : YUVChroma subsampling : 4:2:0Bit depth : 8 bitsScan type : ProgressiveCompression mode : LossyBits/(Pixel*Frame) : 0.243Stream size : 169 MiB (91%)Writing library : XviD 64
AudioID : 1Format : MPEG AudioFormat version : Version 1Format profile : Layer 3Mode : Joint stereoMode extension : MS StereoCodec ID : 55Codec ID/Hint : MP3Duration : 9mn 55sBit rate mode : ConstantBit rate : 224 KbpsChannel(s) : 2 channelsSampling rate : 48.0 KHzCompression mode : LossyStream size : 15.9 MiB (9%)Alignment : Aligned on interleavesInterleave, duration : 40 ms (1.00 video frame)Interleave, preload duration : 408 ms

Скриншоты

Other forum [Profile] [PM]
Display posts from previous:    
Reply to topic

The time now is: Today 06:43

All times are GMT + 3 Hours



You cannot post new topics in this forum
You cannot reply to topics in this forum
You cannot edit your posts in this forum
You cannot delete your posts in this forum
You cannot vote in polls in this forum
You cannot attach files in this forum
You cannot download files in this forum