Today is a free download without charge Download

Погоня / Abduction (Джон Синглтон) [2011 г., боевик, триллер, драма, детектив, BDRip1080p]

Reply to topic
 
Author
Message

sassad ®

Gender:

Longevity: 10 years

Posts: 1214

Location: Галич

Торрент-статистика

Post 26-Dec-2011 00:07

[Quote]

Погоня / Abduction--
Год выпуска: 2011
Страна: США
Жанр: боевик, триллер, драма, детектив
Продолжительность: 106 мин. / 01:46
Перевод: Профессиональный(дублированный)-Режиссер: Джон Синглтон
Продюссер: Даг Дэвисон, Эллен Голдсмит-Вейн, Дэн Лотнер
Сценарий: Шоун Кристенсен
Бюджет: $35 000 000
Премьера в мире: 23 августа 2011
PG-13 - Детям до 13 лет просмотр не желателен
4.20 (10 975)

В ролях: Тэйлор Лотнер, Лили Коллинз, Джейсон Айзекс, Альфред Молина, Сигурни Уивер, Мария Белло, Антоник Смит, Микаэл Нюквист, Дэнзел Уитакер, Джейк Андолина-Описание: Главный герой в один прекрасный день обнаруживает на сайте по розыску пропавших детей собственное фото. Отойдя от шока, он понимает, что родители похитили его и вырастили как собственного ребенка. Юноша начинает расследование, которое, в итоге, превращается в цепь жестоких и местами смертельно опасных событий.-Качество: BDRip1080p
Формат: MKV
Видео кодек: H.26x
Аудио кодек: AC3
Видео: MPEG-4 AVC, 12000 Кбит/с, 1920x800
Аудио: Русский (AC3, 6 ch, 448 Кбит/с), английский (DTS, 6 ch, 1510 Кбит/с)


--

Инфо

Код:
Общее
Полное имя                       : Pogonya.2011.x264.BDRip.1080p.UNIONGANG.mkv
Формат                           : Matroska
Версия формата                   : Version 2
Размер файла                     : 10,3 Гбайт
Продолжительность                : 1 ч. 45 м.
Общий поток                      : 14,0 Мбит/сек
Название фильма                  : Pogonya.2011.x264.BDRip.1080p.UNIONGANG.mkv
Дата кодирования                 : UTC 2011-12-25 17:07:16
Программа кодирования            : mkvmerge v5.1.0 ('And so it goes') built on Nov 28 2011 23:58:28
Библиотека кодирования           : libebml v1.2.3 + libmatroska v1.3.0
Видео
Идентификатор                    : 1
Формат                           : AVC
Формат/Информация                : Advanced Video Codec
Профиль формата                  : [email protected]
Параметр CABAC формата           : Да
Параметр ReFrames формата        : 5 кадров
Идентификатор кодека             : V_MPEG4/ISO/AVC
Продолжительность                : 1 ч. 45 м.
Битрейт                          : 12,0 Мбит/сек
Ширина                           : 1920 пикс.
Высота                           : 800 пикс.
Соотношение сторон               : 2,40:1
Частота кадров                   : 23,976 кадр/сек
Цветовое пространство            : YUV
Подвыборка цветности             : 4:2:0
Битовая глубина                  : 8 бит
Тип развёртки                    : Прогрессивная
Бит/(Пиксели*Кадры)              : 0.326
Размер потока                    : 8,67 Гбайт (84%)
Заголовок                        : Abduction.D.BDRip.1080p.Uniongang.tv
Библиотека кодирования           : x264 core 116 r2074 2641b9e
Настройки программы              : cabac=1 / ref=5 / deblock=1:-3:-3 / analyse=0x3:0x113 / me=umh / subme=11 / psy=1 / psy_rd=1.05:0.10 / mixed_ref=1 / me_range=32 / chroma_me=1 / trellis=2 / 8x8dct=1 / cqm=0 / deadzone=21,11 / fast_pskip=0 / chroma_qp_offset=-2 / threads=8 / sliced_threads=0 / nr=0 / decimate=1 / interlaced=0 / bluray_compat=0 / constrained_intra=0 / bframes=6 / b_pyramid=2 / b_adapt=2 / b_bias=0 / direct=3 / weightb=1 / open_gop=0 / weightp=2 / keyint=250 / keyint_min=23 / scenecut=40 / intra_refresh=0 / rc_lookahead=50 / rc=2pass / mbtree=1 / bitrate=12000 / ratetol=1.0 / qcomp=0.70 / qpmin=0 / qpmax=69 / qpstep=4 / cplxblur=20.0 / qblur=0.5 / vbv_maxrate=45000 / vbv_bufsize=40000 / nal_hrd=none / ip_ratio=1.40 / aq=2:0.90
Язык                             : English
Аудио #1
Идентификатор                    : 2
Формат                           : AC-3
Формат/Информация                : Audio Coding 3
Расширение режима                : CM (complete main)
Идентификатор кодека             : A_AC3
Продолжительность                : 1 ч. 45 м.
Вид битрейта                     : Постоянный
Битрейт                          : 448 Кбит/сек
Каналы                           : 6 каналов
Расположение каналов             : Front: L C R, Side: L R, LFE
Частота                          : 48,0 КГц
Битовая глубина                  : 16 бит
Метод сжатия                     : С потерями
Размер потока                    : 340 Мбайт (3%)
Заголовок                        : AC3 448 kb/s
Язык                             : Russian
Аудио #2
Идентификатор                    : 3
Формат                           : DTS
Формат/Информация                : Digital Theater Systems
Идентификатор кодека             : A_DTS
Продолжительность                : 1 ч. 45 м.
Вид битрейта                     : Постоянный
Битрейт                          : 1510 Кбит/сек
Каналы                           : 6 каналов
Расположение каналов             : Front: L C R, Side: L R, LFE
Частота                          : 48,0 КГц
Битовая глубина                  : 24 бит
Метод сжатия                     : С потерями
Размер потока                    : 1,12 Гбайт (11%)
Заголовок                        : DTS-CORE 1536K
Язык                             : English
Текст
Идентификатор                    : 4
Формат                           : UTF-8
Идентификатор кодека             : S_TEXT/UTF8
Идентификатор кодека/Информация  : UTF-8 Plain Text
Язык                             : English
--

Скриншоты

       
-

_________________


Last edited by sassad on 2011-12-26 12:05; edited 2 times in total
Other forum [Profile] [PM]

Delia

Gender:

Longevity: 10 years

Posts: 1821

Торрент-статистика

Post 26-Dec-2011 09:35 (after 9 hours)

[Quote]

Формат mkv .

_________________
Человек – это канат, натянутый между животным и сверхчеловеком, – канат над пропастью.
В человеке ценно то, что он мост, а не цель. Фридрих Ницше
Other forum [Profile] [PM]
Display posts from previous:    
Reply to topic

The time now is: Today 12:18

All times are GMT + 3 Hours



You cannot post new topics in this forum
You cannot reply to topics in this forum
You cannot edit your posts in this forum
You cannot delete your posts in this forum
You cannot vote in polls in this forum
You cannot attach files in this forum
You cannot download files in this forum