Today is a free download without charge Download

Тайна Сухаревой башни (8 серий из 8) (Сергей Серегин, Наталья Мальгина, Софья Кравцова, Алексей Бовкун) [2013, мультфильм, фэнтези, DVDRip]

Reply to topic
 
Author
Message

Omen ®

Longevity: 7 years 11 months

Posts: 181087

Торрент-статистика

Post 21-May-2014 20:00

[Quote]

Тайна Сухаревой башни (Полная версия - 8 серий)
Страна: Россия / Мастер-Фильм
Жанр: мультфильм, фэнтези
Продолжительность: 01:44:59
Год выпуска: 2013
Перевод: Не требуется
Русские субтитры: нет
Режиссёр: Сергей Серегин, Наталья Мальгина, Софья Кравцова, Алексей Бовкун
Роли озвучивали: Брюс - Александр Таньжин, Марго - Ольга Шорохова, Петя - Прохор Чеховской, Кубик - Диомид Виноградов, Шар - Андрей Ярославцев
Описание: Восемь фантастических историй, в которые попадают самые обычные дети - мальчик Петя и девочка Марго.
Они живут в далеком прошлом, в Москве, в знаменитой Сухаревой башне. В те времена здесь находилась лаборатория загадочного магистра - Якова Брюса.
А еще через эту башню можно попасть в волшебные миры, где Петю, Марго и их механического друга Кубика всегда ждут удивительные приключения.

Список серий

01. Черный Роджер
02. Эликсир жизни
03. Наряд Принцессы ночи
04. Охота на тень
05. Узурпатор времени
06. Морской узел
07. Сон государев
08. Время назад
Доп. информация: Мини-сериал, как реклама к грядущей полнометражке [31 мая 2014] (их кстати планируется аж три!), ну и к полноценному сериалу (серии по 25 минут) из 52 серий...)
Семпл: http://multi-up.com/975235
Качество: DVDRip (DVD9 R5)
Формат: AVI
Видео: 720x400 (16:9), 25 fps, XviD ~2020 kbps avg, 0.291 bit/pixel
Аудио: 48 kHz, AC3 Dolby Digital, 2/0 (L,R) ch, ~192 kbps, русский
Субтитры: Отстутствуют

Подробные технические данные

ОбщееПолное имя : E:\Торренты\Taina.Suharevoy.bashni.2013.O.DVDRip_[Youtracker]_by_avproh\01.aviФормат : AVIФормат/Информация : Audio Video InterleaveРазмер файла : 210 МбайтПродолжительность : 13 м.Общий поток : 2222 Кбит/секПрограмма кодирования : VirtualDubModRus 1.5.10.2 (build 2542/release)Библиотека кодирования : VirtualDubMod build 2542/release
ВидеоИдентификатор : 0Формат : MPEG-4 VisualПрофиль формата : Advanced [email protected]Параметр BVOP формата : 1Параметр QPel формата : НетПараметр GMC формата : Без точки переходаПараметр матрицы формата : ВыборочнаяИдентификатор кодека : XVIDИдентификатор кодека/Подсказка : XviDПродолжительность : 13 м.Битрейт : 2020 Кбит/секШирина : 720 пикселейВысота : 400 пикселейСоотношение сторон : 16:9Частота кадров : 25,000 кадров/секЦветовое пространство : YUVСубдискретизация насыщенности : 4:2:0Битовая глубина : 8 битТип развёртки : ПрогрессивнаяМетод сжатия : С потерямиБит/(Пиксели*Кадры) : 0.281Размер потока : 191 Мбайт (91%)Библиотека кодирования : XviD 73
АудиоИдентификатор : 1Формат : AC-3Формат/Информация : Audio Coding 3Расширение режима : CM (complete main)Параметр Endianness формата : BigИдентификатор кодека : 2000Продолжительность : 13 м.Вид битрейта : ПостоянныйБитрейт : 192 Кбит/секКаналы : 2 каналаРасположение каналов : Front: L RЧастота : 48,0 КГцБитовая глубина : 16 битМетод сжатия : С потерямиРазмер потока : 18,1 Мбайт (9%)Выравнивание : Разделение по промежуткамПродолжительность промежутка : 40 мс. (1,00 видеокадр)Время предзагрузки промежутка : 500 мс.

Скриншоты

Other forum [Profile] [PM]
Display posts from previous:    
Reply to topic

The time now is: Today 21:15

All times are GMT + 3 Hours



You cannot post new topics in this forum
You cannot reply to topics in this forum
You cannot edit your posts in this forum
You cannot delete your posts in this forum
You cannot vote in polls in this forum
You cannot attach files in this forum
You cannot download files in this forum