Today is a free download without charge Download

Хочу как ты / The Change-Up (Дэвид Добкин / David Dobkin) [2011, США, комедия, BDRemux 1080p] Dub Sub Rus + Original Eng

Reply to topic
 
Author
Message

Relizer ®

Gender:

Longevity: 9 years 4 months

Posts: 233

Торрент-статистика

Post 24-Dec-2011 07:48

[Quote]

Хочу как ты / The Change-Up Страна: США
Студия: Big Kid Pictures
Жанр: комедия
Год выпуска: 2011
Продолжительность: 01:52:32
Перевод: Профессиональный (дублированный) [лицензия]
Cубтитры: русские(forced),английские
Оригинальная аудиодорожка: английский
Режиссер: Дэвид Добкин / David Dobkin
В ролях: Райан Рейнольдс, Джейсон Бейтман, Лесли Манн, Оливия Уайлд, Алан Аркин, Мирчи Монро, Грегори Итцин, Нед Шмидтке, Ло Минг, Сидни Рувьер
Описание: В детстве Митч и Дейв были неразлучными друзьями. Но со временем их дороги разошлись. Дейв стал успешным юристом и примерным семьянином. Митч же остался холостяком и сердцеедом. Он считает, что у друга есть все, о чем только можно мечтать: прекрасная жена Джейми, любящие дети и крутая работа. Дейву же представляется сказочной беззаботная жизнь Митча, который днем курит травку, а ночи проводит в компании красивых женщин. Но однажды в жизни друзей все переворачивается вверх дном: Митч становится Дейвом, а Дейв — Митчем.
Тип релиза: BDRemux 1080p
Контейнер: MKV
Исходник:The Change-Up 2011 BluRay 1080p AVC VC1 DTS-HD MA-HDChina
Видео: AVC,1920x1080,18192 kbps,23.976 fps
Аудио 1: Russian: 48 kHz, AC3, 3/2 (L,C,R,l,r) + LFE ch, ~384.00 kbps avg
Аудио 2: DTS-HD Master Audio/English/3609 kbps/5.1 /48 kHz /3609 kbps / 24-bit (DTS Core: 5.1 / 48 kHz / 1509 kbps / 24-bit)
Чаптеры:есть

MediaInfo

General
Unique ID : 206363138278260616824756428583128528903 (0x9B4018411020C515A9974FFC5233F807)
Complete name : D:\Downloads\Видео\Дорожки\The Change-Up 2011 1080p Blu-ray AVC DTS-HD MA 5.1-HDChina.mkv
Format : Matroska
File size : 17.4 GiB
Duration : 1h 52mn
Overall bit rate : 22.1 Mbps
Movie name : -Talian-
Encoded date : UTC 2011-12-23 23:22:50
Writing application : mkvmerge v5.0.1 ('Es ist Sommer') built on Oct 9 2011 11:55:43
Writing library : libebml v1.2.2 + libmatroska v1.3.0
Video
ID : 1
Format : AVC
Format/Info : Advanced Video Codec
Format profile : [email protected]
Format settings, CABAC : Yes
Format settings, ReFrames : 4 frames
Codec ID : V_MPEG4/ISO/AVC
Duration : 1h 52mn
Bit rate mode : Variable
Bit rate : 18.8 Mbps
Maximum bit rate : 35.0 Mbps
Width : 1 920 pixels
Height : 1 080 pixels
Display aspect ratio : 16:9
Frame rate : 23.976 fps
Color space : YUV
Chroma subsampling : 4:2:0
Bit depth : 8 bits
Scan type : Progressive
Bits/(Pixel*Frame) : 0.379
Stream size : 14.8 GiB (85%)
Title : The Change-Up 2011 BluRay 1080p AVC VC1 DTS-HD MA-HDChina
Language : English
Color primaries : BT.709-5, BT.1361, IEC 61966-2-4, SMPTE RP177
Transfer characteristics : BT.709-5, BT.1361
Matrix coefficients : BT.709-5, BT.1361, IEC 61966-2-4 709, SMPTE RP177
Audio #1
ID : 2
Format : AC-3
Format/Info : Audio Coding 3
Mode extension : CM (complete main)
Codec ID : A_AC3
Duration : 1h 52mn
Bit rate mode : Constant
Bit rate : 384 Kbps
Channel(s) : 6 channels
Channel positions : Front: L C R, Side: L R, LFE
Sampling rate : 48.0 KHz
Bit depth : 16 bits
Compression mode : Lossy
Stream size : 309 MiB (2%)
Title : DUB-R5
Language : Russian
Audio #2
ID : 3
Format : DTS
Format/Info : Digital Theater Systems
Format profile : MA / Core
Codec ID : A_DTS
Duration : 1h 52mn
Bit rate mode : Variable
Bit rate : 2 455 Kbps / 1 510 Kbps
Channel(s) : 6 channels
Channel positions : Front: L C R, Side: L R, LFE
Sampling rate : 48.0 KHz
Bit depth : 24 bits
Compression mode : Lossless / Lossy
Title : Original
Language : English
Text #1
ID : 4
Format : UTF-8
Codec ID : S_TEXT/UTF8
Codec ID/Info : UTF-8 Plain Text
Title : Sub-forced
Language : Russian
Text #2
ID : 5
Format : UTF-8
Codec ID : S_TEXT/UTF8
Codec ID/Info : UTF-8 Plain Text
Title : Sub
Language : English
Menu
00:00:00.000 : en:
00:03:25.038 : en:
00:09:23.729 : en:
00:16:46.880 : en:
00:23:17.270 : en:
00:28:29.206 : en:
00:34:43.372 : en:
00:40:42.606 : en:
00:46:20.235 : en:
00:53:00.635 : en:
00:58:16.451 : en:
01:03:25.468 : en:
01:08:38.322 : en:
01:12:22.212 : en:
01:18:03.345 : en:
01:24:40.742 : en:
01:28:30.138 : en:
01:36:13.684 : en:
01:38:55.720 : en:
01:46:48.693 : en:
     

_________________
Хк Локомотив #52# Макс ты был моим замечательным другом, пусть земля будет тебе пухом.. #52#07/09/2011- Обращаться с девочкой надо аккуратно, как с ёлочкой...Вырубить и отнести домой:)
Other forum [Profile] [PM]
Display posts from previous:    
Reply to topic

The time now is: Today 11:51

All times are GMT + 3 Hours



You cannot post new topics in this forum
You cannot reply to topics in this forum
You cannot edit your posts in this forum
You cannot delete your posts in this forum
You cannot vote in polls in this forum
You cannot attach files in this forum
You cannot download files in this forum