Сегодня идет свободное скачивание без начисления Download

Властелин колец / The Lord of the Rings (2001-2003) BDRip [1080p] [hand made 60fps] [Extended Edition] [Трилогия]

Ответить на тему
 
Автор
Сообщение

Varius ®

Пол:

Стаж: 8 лет 7 месяцев

Сообщений: 2681

Откуда: Hell

Торрент-статистика

Пост 20-Май-2014 04:26

[Цитировать]

Властелин колец / The Lord of the Rings (2001-2003) BDRip [1080p] [hand made 60fps] [Extended Edition] [Трилогия]- Жанр: Фэнтези, Боевик, Приключения
Года производства: 2001, 2002, 2003
Произведено: США, Новая Зеландия
Продолжительность: 03:48:18; 03:55:30; 04:23:16Описание«Властелин колец» является одним из самых крупных проектов в истории кино. Его реализация заняла восемь лет; все три фильма были сняты одновременно в Новой Зеландии, родной стране Джексона. У каждого из фильмов трилогии есть специальная расширенная версия, выпущенная на DVD спустя год после выхода соответствующей театральной версии. Фильмы следуют за основной сюжетной линией книги, но опускают некоторые существенные элементы повествования, включают дополнения и отклонения от исходного материала.
Сюжет трилогии следует за хоббитом Фродо Бэггинсом, который идёт в поход вместе с Братством Кольца с целью уничтожения Кольца Всевластия. Это необходимо для окончательной победы над его создателем, Тёмным Властелином Сауроном. Братство распадается, и Фродо продолжает путешествие вместе с верным спутником Сэмом и предательским проводником Голлумом. Тем временем Арагорн, наследник трона Гондора, и волшебник Гэндальф объединяют Свободные народы Средиземья для противостояния армиям Саурона в Войне Кольца.
Трилогия имела большой финансовый успех и является одной из самых прибыльных серий фильмов. Фильмы были положительно приняты критиками и выиграли 17 премий «Оскар» из 30 номинаций. Заключительный фильм трилогии, «Возвращение короля», получил все 11 «Оскаров», на которые был номинирован, что является рекордным количеством наград Американской киноакадемии для одного фильма (за всю историю столько же статуэток смогли получить только два фильма: «Бен-Гур» Уильяма Уайлера и «Титаник» Джеймса Кэмерона). Трилогия также известна использованием инновационных визуальных эффектов, в частности, Голлум стал первым персонажем, полностью созданным с помощью технологии захвата движения.
[url=/forum/viewtopic.php?p=6539778#6539778]720p[/url]

Отличия от раздач kryl141

1. В 2,5 раза уменьшен видео битрейт и соответственно размер.
2. Наличие Форс. и Полных Рус. и Англ. Субтитров.
3. Все в одном Торренте.
4.Только 3 звуковые дорожки.

Внимание!

Перед скачиванием обязательно проверьте Сэмплы на своем оборудовании.

Рецензия, отзыв о фильме

В 2,5 раза больше кадров!
В 2,5 раза плавнее! (59,94 fps)
Приятного просмотра.

Властелин колец: Братство кольца

Властелин колец: Братство кольца / The Lord of the Rings: The Fellowship of the RingОригинальное название:The Lord of the Rings: The Fellowship of the Ring
Год выпуска: 2001
Жанр: Фэнтези, Боевик, Приключения
Производство: США, Новая Зеландия
Описание фильма:
Сказания о Средиземье — это хроника Великой войны за Кольцо, войны, длившейся не одну тысячу лет. Тот, кто владел Кольцом, получал власть над всеми живыми тварями, но был обязан служить злу.
Тихая деревня, где живут хоббиты. Волшебник Гэндальф, придя на 111-й день рождения к своему старому другу Бильбо Бэггинсу, начинает вести разговор о кольце, которое Бильбо нашел много лет назад. Это кольцо принадлежало когда-то темному властителю Средиземья Саурону, и оно дает большую власть своему обладателю. Теперь Саурон хочет вернуть себе власть над Средиземьем. Бильбо отдает найденное кольцо своему племяннику Фродо, который пытается научиться справляться с тем страшным могуществом, которое дает ему кольцо…
Режиссер: Питер Джексон
Актеры: Элайджа Вуд, Иэн МакКеллен, Вигго Мортенсен, Шон Бин, Орландо Блум, Джон Рис-Дэвис, Иэн Холм, Шон Эстин, Билли Бойд, Доминик Монахэн
Продолжительность: 03:48:18
Качество видео: BDRip
Перевод: Дублированный
Язык субтитров: Rus (форс.), Rus (полные), Eng (форс.), Eng (полные)
Вид субтитров: Вшитые

Видеокодек: MPEG-4 AVC/H.264
Битрейт видео: ~8075 kb/s
Размер кадра: 1920*800
Аудио 1 Русский: AC3 5.1, 448 kb/s, Дуб.+ Позитив на вставки
Аудио 1 Русский: AC3 5.1, 640 kb/s, Позитив
Аудио 2 Английский: AC3 5.1, 640 kb/s
Сэмпл: Ссылка

MI

Общее
Уникальный идентификатор : 181384545881967774554334433268688204245 (0x88756490EBBADB7098D2D6885A63B1D5)
Полное имя : F:\Властелин колец 1080p 60fps\Властелин колец 1 1080p 60fps.mkv
Формат : Matroska
Версия формата : Version 4 / Version 2
Размер файла : 16,0 Гбайт
Продолжительность : 3 ч. 48 м.
Общий поток : 10,0 Мбит/сек
Дата кодирования : UTC 2014-05-12 17:02:10
Программа кодирования : mkvmerge v6.9.1 ('Blue Panther') 64bit built on Apr 18 2014 18:23:38
Библиотека кодирования : libebml v1.3.0 + libmatroska v1.4.1
Attachment : Yes / Yes / Yes
Видео
Идентификатор : 1
Формат : AVC
Формат/Информация : Advanced Video Codec
Профиль формата : [url=mailto:[email protected]][email protected][/url]
Параметр CABAC формата : Да
Параметр ReFrames формата : 4 кадра
Идентификатор кодека : V_MPEG4/ISO/AVC
Продолжительность : 3 ч. 48 м.
Битрейт : 8075 Кбит/сек
Ширина : 1920 пикселей
Высота : 800 пикселей
Соотношение сторон : 2,40:1
Режим частоты кадров : Постоянный
Частота кадров : 59,880 кадров/сек
Частота кадров в оригинале : 59,940 кадров/сек
Цветовое пространство : YUV
Субдискретизация насыщенности : 4:2:0
Битовая глубина : 8 бит
Тип развёртки : Прогрессивная
Бит/(Пиксели*Кадры) : 0.088
Размер потока : 12,9 Гбайт (81%)
Библиотека кодирования : x264 core 130 r2273 b3065e6
Настройки программы : cabac=1 / ref=4 / deblock=1:-1:-1 / analyse=0x3:0 / me=umh / subme=9 / psy=1 / psy_rd=1.00:0.10 / mixed_ref=1 / me_range=24 / chroma_me=0 / trellis=1 / 8x8dct=1 / cqm=0 / deadzone=21,11 / fast_pskip=0 / chroma_qp_offset=-3 / threads=6 / lookahead_threads=1 / sliced_threads=0 / nr=0 / decimate=0 / interlaced=0 / bluray_compat=0 / constrained_intra=0 / bframes=5 / b_pyramid=2 / b_adapt=2 / b_bias=0 / direct=1 / weightb=1 / open_gop=0 / weightp=2 / keyint=599 / keyint_min=59 / scenecut=40 / intra_refresh=0 / rc=crf / mbtree=0 / crf=18.0 / qcomp=0.60 / qpmin=0 / qpmax=69 / qpstep=4 / ip_ratio=1.40 / pb_ratio=1.30 / aq=1:0.90
Язык : English
Default : Да
Forced : Нет
Аудио #1
Идентификатор : 2
Формат : AC-3
Формат/Информация : Audio Coding 3
Расширение режима : CM (complete main)
Параметр Endianness формата : Big
Идентификатор кодека : A_AC3
Продолжительность : 3 ч. 48 м.
Вид битрейта : Постоянный
Битрейт : 448 Кбит/сек
Каналы : 6 каналов
Расположение каналов : Front: L C R, Side: L R, LFE
Частота : 48,0 КГц
Битовая глубина : 16 бит
Метод сжатия : С потерями
Размер потока : 732 Мбайт (4%)
Заголовок : Dub + MVO
Язык : Russian
Default : Да
Forced : Нет
Аудио #2
Идентификатор : 7
Формат : AC-3
Формат/Информация : Audio Coding 3
Расширение режима : CM (complete main)
Параметр Endianness формата : Big
Идентификатор кодека : A_AC3
Продолжительность : 3 ч. 48 м.
Вид битрейта : Постоянный
Битрейт : 640 Кбит/сек
Каналы : 6 каналов
Расположение каналов : Front: L C R, Side: L R, LFE
Частота : 48,0 КГц
Битовая глубина : 16 бит
Метод сжатия : С потерями
Размер потока : 1,02 Гбайт (6%)
Заголовок : MVO
Язык : Russian
Default : Нет
Forced : Нет
Аудио #3
Идентификатор : 8
Формат : AC-3
Формат/Информация : Audio Coding 3
Расширение режима : CM (complete main)
Параметр Endianness формата : Big
Идентификатор кодека : A_AC3
Продолжительность : 3 ч. 48 м.
Вид битрейта : Постоянный
Битрейт : 640 Кбит/сек
Каналы : 6 каналов
Расположение каналов : Front: L C R, Side: L R, LFE
Частота : 48,0 КГц
Битовая глубина : 16 бит
Метод сжатия : С потерями
Размер потока : 1,02 Гбайт (6%)
Заголовок : Original
Язык : English
Default : Нет
Forced : Нет
Текст #1
Идентификатор : 3
Формат : ASS
Идентификатор кодека : S_TEXT/ASS
Идентификатор кодека/Информация : Advanced Sub Station Alpha
Метод сжатия : Без потерь
Заголовок : Forced
Язык : Russian
Default : Да
Forced : Нет
Текст #2
Идентификатор : 4
Формат : UTF-8
Идентификатор кодека : S_TEXT/UTF8
Идентификатор кодека/Информация : UTF-8 Plain Text
Заголовок : Full
Язык : Russian
Default : Нет
Forced : Нет
Текст #3
Идентификатор : 5
Формат : ASS
Идентификатор кодека : S_TEXT/ASS
Идентификатор кодека/Информация : Advanced Sub Station Alpha
Метод сжатия : Без потерь
Заголовок : Forsed
Язык : English
Default : Нет
Forced : Нет
Текст #4
Идентификатор : 6
Формат : ASS
Идентификатор кодека : S_TEXT/ASS
Идентификатор кодека/Информация : Advanced Sub Station Alpha
Метод сжатия : Без потерь
Заголовок : Full
Язык : English
Default : Нет
Forced : Нет
Меню
00:00:00.000 : en: 1. Prologue: One Ring To Rule Them All...
00:07:36.790 : en: 2. Concerning Hobbits
00:10:35.552 : en: 3. The Shire
00:15:39.856 : en: 4. Very Old Friends
00:19:58.489 : en: 5. A Long-expected Party
00:25:32.614 : en: 6. Farewell Dear Bilbo
00:29:57.379 : en: 7. Keep It Secret, Keep It Safe
00:32:10.679 : en: 8. The Account Of Isildur
00:34:51.798 : en: 9. At The Green Dragon
00:36:18.176 : en:10. The Shadow of the Past
00:45:04.160 : en:11. The Passing of the Elves
00:46:44.301 : en:12. Saruman The White
00:51:21.412 : en:13. A Short Cut to Mushrooms
00:55:12.434 : en:14. Bucklebury Ferry
00:57:30.072 : en:15. At the Sign of The Prancing Pony
01:03:31.516 : en:16. The Nazgul
01:07:16.115 : en:17. The Midgewater Marshes
01:08:53.588 : en:18. The Spoiling Of Isengard
01:10:35.940 : en:19. A Knife in the Dark
01:15:15.386 : en:20. The Caverns of Isengard
01:17:46.620 : en:21. Flight to the Ford
01:24:11.546 : en:22. Rivendell
01:26:12.501 : en:23. Many Meetings
01:29:41.585 : en:24. The Fate of the Ring
01:33:14.672 : en:25. The Sword That Was Broken
01:35:54.082 : en:26. The Evenstar
01:37:32.972 : en:27. The Council of Elrond
01:45:45.000 : en:28. Gilraen's Memorial
01:46:59.826 : en:29. Bilbo's Gifts
01:48:43.221 : en:30. The Departure of the Fellowship
01:50:00.631 : en:31. The Ring Goes South
01:53:06.442 : en:32. The Pass of Caradhras
01:57:52.728 : en:33. Moria
02:04:18.113 : en:34. A Journey in the Dark
02:10:48.461 : en:35. Balin's Tomb
02:20:13.192 : en:36. The Bridge of Khazad-Dum
02:29:54.648 : en:37. Lothlorien
02:33:07.299 : en:38. Caras Galadhorn
02:40:24.319 : en:39. The Mirror of Galadriel
02:46:04.325 : en:40. The Fighting Uruk-Hai
02:47:45.676 : en:41. Farewell to Lorien
02:53:08.207 : en:42. The Great River
02:58:00.457 : en:43. Parth Galen
03:04:28.219 : en:44. The Breaking of the Fellowship
03:11:44.155 : en:45. The Departure of Boromir
03:14:26.484 : en:46. The Road Goes Ever On
03:20:44.653 : en:47. Credits
03:28:25.155 : en:48. Official Fan Club Credits

Log x264

PLATFORM
------------------------------
OS Code: Microsoft Windows NT 6.1.7601 Service Pack 1
OS Name: Windows 7 Ultimate Service Pack 1 (x64)
Framework: 2.0.50727.5477 (v4.0)
AviSynth: AviSynth 2.58 MT v.6 (SVP edition), build:Oct 5 2010 [13:43:59]
CPU Info: AMD A10-6800K APU with Radeon(tm) HD Graphics (~4691), 4 core(s)
RAM Total: 8154Mb
Language: RUS (1251, ",")
SystemDrive: C:
XviD4PSP
------------------------------
Version: 5.10.330.0
Created: 19.03.2013 07:34:12
AppPath: C:\Program Files (x86)\XviD4PSP 5
TempPath: C:\Temp
FILES
------------------------------
Властелин колец 1 1080p 60fps.mkv >
Властелин колец 1 1080p 60fps.mkv
TASK
------------------------------
Format: MKV
Duration: 01:31:19:096 (328417)
VideoDecoder: DirectShowSource2
Resolution: 1920x1080 > 1920x800
Aspect: 2.4000
VCodecPreset: Custom
VEncodingMode: Quality
VideoCodec: h264 > x264
VideoBitrate: 29263 > Q18.0
Framerate: 23.976 > 59.940
FramerateModifier: AssumeFPS
SourceType: PROGRESSIVE
FieldOrder: UNKNOWN
SCRIPT
------------------------------
Import("C:\Program Files (x86)\XviD4PSP 5\dlls\AviSynth\functions\AudioFunctions.avs")
Import("C:\Program Files (x86)\XviD4PSP 5\dlls\AviSynth\functions\VideoFunctions.avs")
LoadPlugin("C:\Program Files (x86)\XviD4PSP 5\dlls\AviSynth\plugins\avss.dll")
DirectShowSource2("C:\Users\pOrtal\Downloads\Властелин колец 1 1080p 60fps.mkv", fps=23.976, preroll=15, lavs="L3", lavd="L3")
ConvertToYV12()
Crop(0, 140, -0, -140)
Lanczos4Resize(1920, 800)
###[FILTERING]###
# This script was generated by SmoothVideo Project (SVP) Manager.
# Check http://www.svp-team.com for more details.
SetMemoryMax(1024)
global svp_scheduler=true
global threads=7
global svp_cache_fwd=threads+2
LoadPlugin("C:\Program Files (x86)\SVP\plugins\svpflow1.dll")
LoadPlugin("C:\Program Files (x86)\SVP\plugins\svpflow2.dll")
SetMTMode(3,threads)
SetMTMode(2)
global crop_params=""
global resize_string=""
global super_params="{pel:1,scale:{up:0},gpu:1,full:false,rc:false}"
global analyse_params="{block:{overlap:0},main:{search:{coarse:{distance:-14,bad:{sad:2000}}}}}"
global smoothfps_params="{rate:{num:5,den:2},algo:23,mask:{cover:80},scene:{mode:0}}"
global demo_mode=0
stereo_type=0
stereo_left_selection=""
stereo_right_selection=""
########## BEGIN OF MSMoothFps.avs ##########
# This file is a part of SmoothVideo Project (SVP) 3.1.4
# This is NOT the full AVS script, all used variables are defined via
# JavaScript code that generates the full script text.
function interpolate(clip src)
{
input = crop_params=="" ? src : eval("src.crop("+crop_params+")")
input = resize_string=="" ? input : eval("input."+resize_string)
super=SVSuper(input, super_params)
vectors=SVAnalyse(super, analyse_params, src=input)
smooth=SVSmoothFps(input, super, vectors, smoothfps_params, mt=threads, url="www.svp-team.com")
return demo_mode==0 ? smooth : demo(input,smooth)
}
input=last
stereo_type==0 ? eval(""" interpolate(input)
""") : stereo_type==1 || stereo_type==3 ? eval("""
lf = interpolate(input.crop(0,0,input.width/2,0))"""+stereo_left_selection+"""
rf = interpolate(input.crop(input.width/2,0,0,0))"""+stereo_right_selection+"""
StackHorizontal(lf, rf)
""") : stereo_type==2 || stereo_type==4 ? Eval("""
lf = interpolate(input.crop(0,0,0,input.height/2))"""+stereo_left_selection+"""
rf = interpolate(input.crop(0,input.height/2,0,0))"""+stereo_right_selection+"""
StackVertical(lf, rf)""") : input
########### END OF MSMoothFps.avs ###########
###[FILTERING]###
AssumeFPS(59.940)
VIDEO ENCODING
------------------------------
Encoding video to: F:\Плавное\Властелин колец 1 1080p 60fps.mkv
x264 Q18.0 1920x800 59.940fps (328417 frames)
x264.exe: --crf 18.0 --preset medium --profile high --level 4.1 --ref 4 --aq-strength 0.9 --deblock -1:-1 --merange 24 --no-chroma-me --bframes 5 --b-adapt 2 --no-fast-pskip --no-dct-decimate --psy-rd 1.00:0.10 --partitions none --subme 9 --me umh --no-mbtree --keyint 599 --sar 1:1 --output "F:\Плавное\Властелин колец 1 1080p 60fps.mkv" "C:\Temp\0237.avs"
avs [info]: 1920x800p 1:1 @ 2997/50 fps (cfr)
x264 [info]: using SAR=1/1
x264 [warning]: MB rate (359640) > level limit (245760)
x264 [info]: using cpu capabilities: MMX2 SSE2Fast SSSE3 SSE4.2 AVX XOP FMA4 FMA3 SSEMisalign LZCNT BMI1
x264 [info]: profile High, level 4.1
x264 [info]: frame I:3584 Avg QP:17.26 size:145316
x264 [info]: frame P:216264 Avg QP:18.23 size: 38579
x264 [info]: frame B:601193 Avg QP:20.62 size: 8808
x264 [info]: consecutive B-frames: 4.3% 5.8% 9.6% 12.6% 59.1% 8.6%
x264 [info]: mb I I16..4: 11.1% 66.4% 22.5%
x264 [info]: mb P I16..4: 8.0% 0.0% 0.0% P16..4: 84.4% 0.0% 0.0% 0.0% 0.0% skip: 7.6%
x264 [info]: mb B I16..4: -1.3% -0.0% -0.0% B16..8: -193.2% -0.0% -0.0% direct:-22.5% skip:-307.3% L0:41.3% L1:52.2% BI: 6.5%
x264 [info]: 8x8 transform intra:10.6% inter:67.7%
x264 [info]: coded y,uvDC,uvAC intra: 55.5% 71.1% 49.6% inter: 21.1% 24.9% 10.0%
x264 [info]: i16 v,h,dc,p: 38% 17% 15% 30%
x264 [info]: i8 v,h,dc,ddl,ddr,vr,hd,vl,hu: 9% 7% 7% 10% 13% 13% 12% 13% 15%
x264 [info]: i4 v,h,dc,ddl,ddr,vr,hd,vl,hu: 10% 8% 5% 10% 14% 13% 13% 12% 16%
x264 [info]: i8c dc,h,v,p: 55% 20% 15% 10%
x264 [info]: Weighted P-Frames: Y:5.8% UV:2.9%
x264 [info]: ref P L0: 56.7% 9.5% 22.4% 9.3% 2.0% 0.1%
x264 [info]: ref B L0: 90.7% 7.2% 2.0%
x264 [info]: ref B L1: 94.8% 5.2%
x264 [info]: kb/s:8269.79
x264 [total]: encoded 821041 frames, 13.95 fps, 8269.79 kb/s
TIME
------------------------------
Общее время кодирования: 16 hour 21 min 12 sec
Файл получился на: 13509.61 mb
Скриншоты:
       
Время раздачи: 24/7 до 26.05.2014

Властелин колец: Две крепости

Властелин колец: Две крепости / The Lord of the Rings: The Two TowersОригинальное название:The Lord of the Rings: The Two Towers
Год выпуска: 2002
Жанр: Фэнтези, Боевик, Приключения
Производство: США, Новая Зеландия
Описание фильма:
Братство распалось, но Кольцо Всевластья должно быть уничтожено. Фродо и Сэм вынуждены доверить свои жизни Голлуму, который взялся провести их к вратам Мордора. Громадная Армия Сарумана приближается: члены братства и их союзники готовы принять бой. Битва за Средиземье продолжается.
Режиссер: Питер Джексон
Актеры: Элайджа Вуд, Шон Эстин, Орландо Блум, Вигго Мортенсен, Иэн МакКеллен, Доминик Монахэн, Миранда Отто, Джон Рис-Дэвис, Энди Серкис, Билли Бойд
Продолжительность: 03:55:30
Качество видео: BDRip
Перевод: Дублированный
Язык субтитров: Rus (форс.), Rus (полные), Eng (форс.), Eng (полные)
Вид субтитров: Вшитые

Видеокодек: MPEG-4 AVC/H.264
Битрейт видео: ~9417 kb/s
Размер кадра: 1920*800
Аудио 1 Русский: AC3 5.1, 448 kb/s, Дуб.+ Позитив на вставки
Аудио 1 Русский: AC3 5.1, 640 kb/s, Позитив
Аудио 2 Английский: AC3 5.1, 640 kb/s
Сэмпл: Ссылка

MI

Общее
Уникальный идентификатор : 241010040049354970603039776548714957457 (0xB550D865C55F2D468DEB7EC74D57CA91)
Полное имя : F:\Властелин колец 1080p 60fps\Властелин колец 2 1080p 60fps.mkv
Формат : Matroska
Версия формата : Version 4 / Version 2
Размер файла : 18,7 Гбайт
Продолжительность : 3 ч. 55 м.
Общий поток : 11,4 Мбит/сек
Дата кодирования : UTC 2014-05-15 10:19:10
Программа кодирования : mkvmerge v6.9.1 ('Blue Panther') 64bit built on Apr 18 2014 18:23:38
Библиотека кодирования : libebml v1.3.0 + libmatroska v1.4.1
Attachment : Yes / Yes / Yes
Видео
Идентификатор : 1
Формат : AVC
Формат/Информация : Advanced Video Codec
Профиль формата : [url=mailto:[email protected]][email protected][/url]
Параметр CABAC формата : Да
Параметр ReFrames формата : 4 кадра
Идентификатор кодека : V_MPEG4/ISO/AVC
Продолжительность : 3 ч. 55 м.
Битрейт : 9417 Кбит/сек
Ширина : 1920 пикселей
Высота : 800 пикселей
Соотношение сторон : 2,40:1
Режим частоты кадров : Постоянный
Частота кадров : 59,880 кадров/сек
Частота кадров в оригинале : 59,940 кадров/сек
Цветовое пространство : YUV
Субдискретизация насыщенности : 4:2:0
Битовая глубина : 8 бит
Тип развёртки : Прогрессивная
Бит/(Пиксели*Кадры) : 0.102
Размер потока : 15,5 Гбайт (83%)
Библиотека кодирования : x264 core 130 r2273 b3065e6
Настройки программы : cabac=1 / ref=4 / deblock=1:-1:-1 / analyse=0x3:0 / me=umh / subme=9 / psy=1 / psy_rd=1.00:0.10 / mixed_ref=1 / me_range=24 / chroma_me=0 / trellis=1 / 8x8dct=1 / cqm=0 / deadzone=21,11 / fast_pskip=0 / chroma_qp_offset=-3 / threads=6 / lookahead_threads=1 / sliced_threads=0 / nr=0 / decimate=0 / interlaced=0 / bluray_compat=0 / constrained_intra=0 / bframes=5 / b_pyramid=2 / b_adapt=2 / b_bias=0 / direct=1 / weightb=1 / open_gop=0 / weightp=2 / keyint=599 / keyint_min=59 / scenecut=40 / intra_refresh=0 / rc=crf / mbtree=0 / crf=18.0 / qcomp=0.60 / qpmin=0 / qpmax=69 / qpstep=4 / ip_ratio=1.40 / pb_ratio=1.30 / aq=1:0.90
Язык : English
Default : Да
Forced : Нет
Аудио #1
Идентификатор : 2
Формат : AC-3
Формат/Информация : Audio Coding 3
Расширение режима : CM (complete main)
Параметр Endianness формата : Big
Идентификатор кодека : A_AC3
Продолжительность : 3 ч. 55 м.
Вид битрейта : Постоянный
Битрейт : 448 Кбит/сек
Каналы : 6 каналов
Расположение каналов : Front: L C R, Side: L R, LFE
Частота : 48,0 КГц
Битовая глубина : 16 бит
Метод сжатия : С потерями
Размер потока : 755 Мбайт (4%)
Заголовок : Dub + MVO
Язык : Russian
Default : Да
Forced : Нет
Аудио #2
Идентификатор : 7
Формат : AC-3
Формат/Информация : Audio Coding 3
Расширение режима : CM (complete main)
Параметр Endianness формата : Big
Идентификатор кодека : A_AC3
Продолжительность : 3 ч. 55 м.
Вид битрейта : Постоянный
Битрейт : 640 Кбит/сек
Каналы : 6 каналов
Расположение каналов : Front: L C R, Side: L R, LFE
Частота : 48,0 КГц
Битовая глубина : 16 бит
Метод сжатия : С потерями
Размер потока : 1,05 Гбайт (6%)
Заголовок : MVO
Язык : Russian
Default : Нет
Forced : Нет
Аудио #3
Идентификатор : 8
Формат : AC-3
Формат/Информация : Audio Coding 3
Расширение режима : CM (complete main)
Параметр Endianness формата : Big
Идентификатор кодека : A_AC3
Продолжительность : 3 ч. 55 м.
Вид битрейта : Постоянный
Битрейт : 640 Кбит/сек
Каналы : 6 каналов
Расположение каналов : Front: L C R, Side: L R, LFE
Частота : 48,0 КГц
Битовая глубина : 16 бит
Метод сжатия : С потерями
Размер потока : 1,05 Гбайт (6%)
Заголовок : Original
Язык : English
Default : Нет
Forced : Нет
Текст #1
Идентификатор : 3
Формат : ASS
Идентификатор кодека : S_TEXT/ASS
Идентификатор кодека/Информация : Advanced Sub Station Alpha
Метод сжатия : Без потерь
Заголовок : Forced
Язык : Russian
Default : Да
Forced : Нет
Текст #2
Идентификатор : 4
Формат : UTF-8
Идентификатор кодека : S_TEXT/UTF8
Идентификатор кодека/Информация : UTF-8 Plain Text
Заголовок : Full
Язык : Russian
Default : Нет
Forced : Нет
Текст #3
Идентификатор : 5
Формат : ASS
Идентификатор кодека : S_TEXT/ASS
Идентификатор кодека/Информация : Advanced Sub Station Alpha
Метод сжатия : Без потерь
Заголовок : Forsed
Язык : English
Default : Нет
Forced : Нет
Текст #4
Идентификатор : 6
Формат : ASS
Идентификатор кодека : S_TEXT/ASS
Идентификатор кодека/Информация : Advanced Sub Station Alpha
Метод сжатия : Без потерь
Заголовок : Full
Язык : English
Default : Нет
Forced : Нет
Меню
00:00:00.000 : en: 1. The Foundations of Stone
00:04:08.748 : en: 2. Elven Rope
00:06:10.829 : en: 3. The Taming of Smeagol
00:14:44.967 : en: 4. The Uruk-hai
00:17:06.609 : en: 5. The Three Hunters
00:19:17.948 : en: 6. The Burning of the Westfold
00:23:07.094 : en: 7. Massacre at the Fords of Isen
00:23:58.312 : en: 8. The Banishment of omer
00:27:09.044 : en: 9. On the Trail of the Uruk-hai
00:28:03.181 : en:10. Night Camp at Fangorn
00:31:38.230 : en:11. The Riders of Rohan
00:35:45.518 : en:12. The Fate of Merry and Pippin
00:38:17.879 : en:13. Treebeard
00:41:47.797 : en:14. The Passage of the Marshes
00:50:49.755 : en:15. The White Rider
00:58:19.413 : en:16. The Song of the Entwives
01:00:40.178 : en:17. The Heir of Numenor
01:02:48.306 : en:18. The Black Gate is Closed
01:08:05.999 : en:19. Ent Draft
01:12:41.732 : en:20. The King of the Golden Hall
01:24:17.344 : en:21. The Funeral of Theodred
01:25:41.636 : en:22. Simbelmyne on the Burial Mounds
01:27:34.332 : en:23. The King's Decision
01:30:45.523 : en:24. Brego
01:32:30.587 : en:25. The Ring of Barahir
01:34:31.040 : en:26. A Daughter of Kings
01:35:57.043 : en:27. Exodus from Edoras
01:37:02.316 : en:28. The Forests of Ithilien
01:38:43.960 : en:29. Gollum and Smeagol
01:41:14.819 : en:30. Of Herbs and Stewed Rabbit
01:46:40.000 : en:31. Dwarf Women
01:47:22.793 : en:32. One of the Dunedain
01:49:52.651 : en:33. The Evenstar
01:54:59.207 : en:34. The Wolves of Isengard
02:01:37.396 : en:35. Helm's Deep
02:04:17.515 : en:36. Isengard Unleashed
02:06:53.963 : en:37. The Grace of the Valar
02:08:31.519 : en:38. Arwen's Fate
02:12:14.283 : en:39. The Story Foreseen from Lorien
02:14:40.262 : en:40. The Window on the West
02:18:29.866 : en:41. Sons of the Steward
02:23:09.437 : en:42. The Forbidden Pool
02:30:31.128 : en:43. Aragorn's Return
02:36:04.378 : en:44. Entmoot
02:37:24.250 : en:45. The Glittering Caves
02:40:32.521 : en:46. "Where Is the Horse and the Rider?"
02:42:17.251 : en:47. "Don't Be Hasty, Master Meriadoc!"
02:43:07.926 : en:48. The Host of the Eldar
02:46:42.015 : en:49. The Batter of the Hornburg
02:53:04.397 : en:50. Old Entish
02:54:41.452 : en:51. The Breach of the Deeping Wall
02:58:06.574 : en:52. The Entmoot Decides
02:59:51.721 : en:53. The Retreat to the Hornburg
03:05:54.208 : en:54. Master Peregrin's Plan
03:07:19.293 : en:55. Osgiliath
03:07:54.036 : en:56. The Last March of the Ents
03:10:23.560 : en:57. The Nazgul Attack
03:12:55.545 : en:58. Forth Eorlingas
03:17:34.032 : en:59. The Flooding of Isengard
03:20:00.386 : en:60. The Tales That Really Mattered...
03:24:45.671 : en:61. Fangorn Comes to Helm's Deep
03:25:37.224 : en:62. The Final Tally
03:26:18.764 : en:63. Flotsam and Jetsam
03:28:22.555 : en:64. Farewell to Faramir
03:30:52.413 : en:65. "The Battle for Middle-Earth is About to Begin"
03:32:32.096 : en:66. Gollum's Plan
03:34:56.240 : en:67. End Credits
03:43:52.525 : en:68. Fan Club Credits

Log x264

PLATFORM
------------------------------
OS Code: Microsoft Windows NT 6.1.7601 Service Pack 1
OS Name: Windows 7 Ultimate Service Pack 1 (x64)
Framework: 2.0.50727.5477 (v4.0)
AviSynth: AviSynth 2.58 MT v.6 (SVP edition), build:Oct 5 2010 [13:43:59]
CPU Info: AMD A10-6800K APU with Radeon(tm) HD Graphics (~4691), 4 core(s)
RAM Total: 8154Mb
Language: RUS (1251, ",")
SystemDrive: C:
XviD4PSP
------------------------------
Version: 5.10.330.0
Created: 19.03.2013 07:34:12
AppPath: C:\Program Files (x86)\XviD4PSP 5
TempPath: C:\Temp
FILES
------------------------------
Властелин колец 2 1080p 60fps.mkv >
Властелин колец 2 1080p 60fps.mkv
TASK
------------------------------
Format: MKV
Duration: 01:34:12:035 (338783)
VideoDecoder: DirectShowSource2
Resolution: 1920x1080 > 1920x800
Aspect: 2.3970 > 2.4000
VCodecPreset: x264 Q18 Custom
VEncodingMode: Quality
VideoCodec: h264 > x264
VideoBitrate: 29289 > Q18.0
Framerate: 23.976 > 59.940
FramerateModifier: AssumeFPS
SourceType: PROGRESSIVE
FieldOrder: UNKNOWN
SCRIPT
------------------------------
Import("C:\Program Files (x86)\XviD4PSP 5\dlls\AviSynth\functions\AudioFunctions.avs")
Import("C:\Program Files (x86)\XviD4PSP 5\dlls\AviSynth\functions\VideoFunctions.avs")
LoadPlugin("C:\Program Files (x86)\XviD4PSP 5\dlls\AviSynth\plugins\avss.dll")
DirectShowSource2("C:\Users\pOrtal\Downloads\Властелин колец 2 1080p 60fps.mkv", fps=23.976, preroll=15, lavs="L3", lavd="L3")
ConvertToYV12()
Crop(6, 142, -6, -142)
Lanczos4Resize(1920, 800)
###[FILTERING]###
# This script was generated by SmoothVideo Project (SVP) Manager.
# Check http://www.svp-team.com for more details.
SetMemoryMax(1024)
global svp_scheduler=true
global threads=7
global svp_cache_fwd=threads+2
LoadPlugin("C:\Program Files (x86)\SVP\plugins\svpflow1.dll")
LoadPlugin("C:\Program Files (x86)\SVP\plugins\svpflow2.dll")
SetMTMode(3,threads)
SetMTMode(2)
global crop_params=""
global resize_string=""
global super_params="{pel:1,scale:{up:0},gpu:1,full:false,rc:false}"
global analyse_params="{block:{overlap:0},main:{search:{coarse:{distance:-14,bad:{sad:2000}}}}}"
global smoothfps_params="{rate:{num:5,den:2},algo:23,mask:{cover:80},scene:{mode:0}}"
global demo_mode=0
stereo_type=0
stereo_left_selection=""
stereo_right_selection=""
########## BEGIN OF MSMoothFps.avs ##########
# This file is a part of SmoothVideo Project (SVP) 3.1.4
# This is NOT the full AVS script, all used variables are defined via
# JavaScript code that generates the full script text.
function interpolate(clip src)
{
input = crop_params=="" ? src : eval("src.crop("+crop_params+")")
input = resize_string=="" ? input : eval("input."+resize_string)
super=SVSuper(input, super_params)
vectors=SVAnalyse(super, analyse_params, src=input)
smooth=SVSmoothFps(input, super, vectors, smoothfps_params, mt=threads, url="www.svp-team.com")
return demo_mode==0 ? smooth : demo(input,smooth)
}
input=last
stereo_type==0 ? eval(""" interpolate(input)
""") : stereo_type==1 || stereo_type==3 ? eval("""
lf = interpolate(input.crop(0,0,input.width/2,0))"""+stereo_left_selection+"""
rf = interpolate(input.crop(input.width/2,0,0,0))"""+stereo_right_selection+"""
StackHorizontal(lf, rf)
""") : stereo_type==2 || stereo_type==4 ? Eval("""
lf = interpolate(input.crop(0,0,0,input.height/2))"""+stereo_left_selection+"""
rf = interpolate(input.crop(0,input.height/2,0,0))"""+stereo_right_selection+"""
StackVertical(lf, rf)""") : input
########### END OF MSMoothFps.avs ###########
###[FILTERING]###
AssumeFPS(59.940)
VIDEO ENCODING
------------------------------
Encoding video to: F:\Плавное\Властелин колец 2 1080p 60fps.mkv
x264 Q18.0 1920x800 59.940fps (338783 frames)
x264.exe: --crf 18.0 --preset medium --profile high --level 4.1 --ref 4 --aq-strength 0.9 --deblock -1:-1 --merange 24 --no-chroma-me --bframes 5 --b-adapt 2 --no-fast-pskip --no-dct-decimate --psy-rd 1.00:0.10 --partitions none --subme 9 --me umh --no-mbtree --keyint 599 --sar 1:1 --output "F:\Плавное\Властелин колец 2 1080p 60fps.mkv" "C:\Temp\0245.avs"
avs [info]: 1920x800p 1:1 @ 2997/50 fps (cfr)
x264 [info]: using SAR=1/1
x264 [warning]: MB rate (359640) > level limit (245760)
x264 [info]: using cpu capabilities: MMX2 SSE2Fast SSSE3 SSE4.2 AVX XOP FMA4 FMA3 SSEMisalign LZCNT BMI1
x264 [info]: profile High, level 4.1
x264 [info]: frame I:3256 Avg QP:18.54 size:142108
x264 [info]: frame P:248365 Avg QP:19.57 size: 40518
x264 [info]: frame B:595335 Avg QP:21.94 size: 10915
x264 [info]: consecutive B-frames: 4.2% 10.5% 19.0% 15.9% 45.2% 5.1%
x264 [info]: mb I I16..4: 7.6% 74.6% 17.8%
x264 [info]: mb P I16..4: 5.3% 0.0% 0.0% P16..4: 87.6% 0.0% 0.0% 0.0% 0.0% skip: 7.1%
x264 [info]: mb B I16..4: -0.8% -0.0% -0.0% B16..8: -203.5% -0.0% -0.0% direct:-24.1% skip:-265.7% L0:38.3% L1:54.4% BI: 7.3%
x264 [info]: 8x8 transform intra:13.9% inter:68.8%
x264 [info]: coded y,uvDC,uvAC intra: 60.3% 65.4% 36.3% inter: 26.6% 24.0% 6.0%
x264 [info]: i16 v,h,dc,p: 41% 14% 12% 32%
x264 [info]: i8 v,h,dc,ddl,ddr,vr,hd,vl,hu: 8% 6% 3% 11% 16% 14% 14% 13% 14%
x264 [info]: i4 v,h,dc,ddl,ddr,vr,hd,vl,hu: 7% 5% 2% 11% 17% 15% 15% 13% 15%
x264 [info]: i8c dc,h,v,p: 50% 21% 16% 13%
x264 [info]: Weighted P-Frames: Y:4.4% UV:2.0%
x264 [info]: ref P L0: 56.7% 13.2% 19.6% 8.2% 2.2% 0.1%
x264 [info]: ref B L0: 92.2% 5.8% 1.9%
x264 [info]: ref B L1: 96.1% 3.9%
x264 [info]: kb/s:9638.67
x264 [total]: encoded 846956 frames, 13.49 fps, 9638.67 kb/s
TIME
------------------------------
Общее время кодирования: 17 hour 26 min 30 sec
Файл получился на: 16241.90 mb
Скриншоты:
       
Время раздачи: 24/7 до 26.05.2014

Властелин колец: Возвращение Короля

Властелин колец: Возвращение Короля / The Lord of the Rings: The Return of the KingОригинальное название:The Lord of the Rings: The Return of the King
Год выпуска: 2003
Жанр: Фэнтези, Боевик, Приключения
Производство: США, Новая Зеландия
Описание фильма:
Последняя часть трилогии о Кольце Всевластия и о героях, взявших на себя бремя спасения Средиземья. Повелитель сил Тьмы Саурон направляет свои бесчисленные рати под стены Минас-Тирита, крепости Последней Надежды. Он предвкушает близкую победу, но именно это и мешает ему заметить две крохотные фигурки — хоббитов, приближающихся к Роковой Горе, где им предстоит уничтожить Кольцо Всевластия. Улыбнется ли им счастье?
Режиссер: Питер Джексон
Актеры: Элайджа Вуд, Вигго Мортенсен, Шон Эстин, Иэн МакКеллен, Орландо Блум, Доминик Монахэн, Билли Бойд, Энди Серкис, Миранда Отто, Бернард Хилл
Продолжительность: 04:23:16
Качество видео: BDRip
Перевод: Дублированный
Язык субтитров: Rus (форс.), Rus (полные), Eng (форс.), Eng (полные)
Вид субтитров: Вшитые

Видеокодек: MPEG-4 AVC/H.264
Битрейт видео: ~10900 kb/s
Размер кадра: 1920*792
Аудио 1 Русский: AC3 5.1, 448 kb/s, Дуб.+ Позитив на вставки
Аудио 1 Русский: AC3 5.1, 640 kb/s, Позитив
Аудио 2 Английский: AC3 5.1, 640 kb/s
Сэмпл: Ссылка

MI

Общее
Уникальный идентификатор : 224329666075329561038957529155611576286 (0xA8C452772B77420EA951D179B4C6C7DE)
Полное имя : F:\Властелин колец 1080p 60fps\Властелин колец 3 1080p 60fps.mkv
Формат : Matroska
Версия формата : Version 4 / Version 2
Размер файла : 23,6 Гбайт
Продолжительность : 4 ч. 23 м.
Общий поток : 12,8 Мбит/сек
Дата кодирования : UTC 2014-05-17 23:00:28
Программа кодирования : mkvmerge v6.9.1 ('Blue Panther') 64bit built on Apr 18 2014 18:23:38
Библиотека кодирования : libebml v1.3.0 + libmatroska v1.4.1
Attachment : Yes / Yes / Yes
Видео
Идентификатор : 1
Формат : AVC
Формат/Информация : Advanced Video Codec
Профиль формата : [url=mailto:[email protected]][email protected][/url]
Параметр CABAC формата : Да
Параметр ReFrames формата : 4 кадра
Идентификатор кодека : V_MPEG4/ISO/AVC
Продолжительность : 4 ч. 23 м.
Битрейт : 10,9 Мбит/сек
Ширина : 1920 пикселей
Высота : 792 пикселя
Соотношение сторон : 2,40:1
Режим частоты кадров : Постоянный
Частота кадров : 59,880 кадров/сек
Частота кадров в оригинале : 59,940 кадров/сек
Цветовое пространство : YUV
Субдискретизация насыщенности : 4:2:0
Битовая глубина : 8 бит
Тип развёртки : Прогрессивная
Бит/(Пиксели*Кадры) : 0.119
Размер потока : 20,0 Гбайт (85%)
Библиотека кодирования : x264 core 130 r2273 b3065e6
Настройки программы : cabac=1 / ref=4 / deblock=1:-1:-1 / analyse=0x3:0 / me=umh / subme=9 / psy=1 / psy_rd=1.00:0.10 / mixed_ref=1 / me_range=24 / chroma_me=0 / trellis=1 / 8x8dct=1 / cqm=0 / deadzone=21,11 / fast_pskip=0 / chroma_qp_offset=-3 / threads=6 / lookahead_threads=1 / sliced_threads=0 / nr=0 / decimate=0 / interlaced=0 / bluray_compat=0 / constrained_intra=0 / bframes=5 / b_pyramid=2 / b_adapt=2 / b_bias=0 / direct=1 / weightb=1 / open_gop=0 / weightp=2 / keyint=599 / keyint_min=59 / scenecut=40 / intra_refresh=0 / rc=crf / mbtree=0 / crf=18.0 / qcomp=0.60 / qpmin=0 / qpmax=69 / qpstep=4 / ip_ratio=1.40 / pb_ratio=1.30 / aq=1:0.90
Язык : English
Default : Да
Forced : Нет
Аудио #1
Идентификатор : 2
Формат : AC-3
Формат/Информация : Audio Coding 3
Расширение режима : CM (complete main)
Параметр Endianness формата : Big
Идентификатор кодека : A_AC3
Продолжительность : 4 ч. 23 м.
Вид битрейта : Постоянный
Битрейт : 448 Кбит/сек
Каналы : 6 каналов
Расположение каналов : Front: L C R, Side: L R, LFE
Частота : 48,0 КГц
Битовая глубина : 16 бит
Метод сжатия : С потерями
Размер потока : 844 Мбайт (3%)
Заголовок : Dub + MVO
Язык : Russian
Default : Да
Forced : Нет
Аудио #2
Идентификатор : 7
Формат : AC-3
Формат/Информация : Audio Coding 3
Расширение режима : CM (complete main)
Параметр Endianness формата : Big
Идентификатор кодека : A_AC3
Продолжительность : 4 ч. 23 м.
Вид битрейта : Постоянный
Битрейт : 640 Кбит/сек
Каналы : 6 каналов
Расположение каналов : Front: L C R, Side: L R, LFE
Частота : 48,0 КГц
Битовая глубина : 16 бит
Метод сжатия : С потерями
Размер потока : 1,18 Гбайт (5%)
Заголовок : MVO
Язык : Russian
Default : Нет
Forced : Нет
Аудио #3
Идентификатор : 8
Формат : AC-3
Формат/Информация : Audio Coding 3
Расширение режима : CM (complete main)
Параметр Endianness формата : Big
Идентификатор кодека : A_AC3
Продолжительность : 4 ч. 23 м.
Вид битрейта : Постоянный
Битрейт : 640 Кбит/сек
Каналы : 6 каналов
Расположение каналов : Front: L C R, Side: L R, LFE
Частота : 48,0 КГц
Битовая глубина : 16 бит
Метод сжатия : С потерями
Размер потока : 1,18 Гбайт (5%)
Заголовок : Original
Язык : English
Default : Нет
Forced : Нет
Текст #1
Идентификатор : 3
Формат : ASS
Идентификатор кодека : S_TEXT/ASS
Идентификатор кодека/Информация : Advanced Sub Station Alpha
Метод сжатия : Без потерь
Заголовок : Forced
Язык : Russian
Default : Да
Forced : Нет
Текст #2
Идентификатор : 4
Формат : UTF-8
Идентификатор кодека : S_TEXT/UTF8
Идентификатор кодека/Информация : UTF-8 Plain Text
Заголовок : Full
Язык : Russian
Default : Нет
Forced : Нет
Текст #3
Идентификатор : 5
Формат : ASS
Идентификатор кодека : S_TEXT/ASS
Идентификатор кодека/Информация : Advanced Sub Station Alpha
Метод сжатия : Без потерь
Заголовок : Forsed
Язык : English
Default : Нет
Forced : Нет
Текст #4
Идентификатор : 6
Формат : ASS
Идентификатор кодека : S_TEXT/ASS
Идентификатор кодека/Информация : Advanced Sub Station Alpha
Метод сжатия : Без потерь
Заголовок : Full
Язык : English
Default : Нет
Forced : Нет
Меню
00:00:00.000 : en: 1. The Finding of the Ring
00:06:24.342 : en: 2. Journey to the Cross-Roads
00:09:21.394 : en: 3. The Road to Isengard
00:11:21.848 : en: 4. The Voice of Saruman
00:18:23.311 : en: 5. Return to Edoras
00:23:05.009 : en: 6. Gollum's Villany
00:27:03.330 : en: 7. Eowyn's Dream
00:29:00.697 : en: 8. The Palantir
00:37:06.433 : en: 9. Arwen's Vision
00:40:02.567 : en:10. The Reforging of Narsil
00:42:03.229 : en:11. Minas Tirith
00:47:52.203 : en:12. The Decline of Gondor
00:50:18.641 : en:13. Cross-Roads of the Fallen King
00:52:18.761 : en:14. "The Deep Breath Before the Plunge"
00:55:35.332 : en:15. Minas Morgul
00:59:36.406 : en:16. Sam's Warning
01:00:23.703 : en:17. Pippin's Task
01:00:50.605 : en:18. Osgiliath Invaded
01:04:30.075 : en:19. The Lighting of the Beacons
01:07:16.032 : en:20. Theoden's Decision
01:10:35.314 : en:21. The Fall of Osgiliath
01:14:54.824 : en:22. The Wizard's Pupil
01:17:21.971 : en:23. The Stairs of Cirith Ungol
01:19:21.799 : en:24. "Courage Is the Best Defense"
01:20:01.088 : en:25. Peregrin of the Tower Guard
01:21:26.799 : en:26. Allegiance to Denethor
01:23:48.941 : en:27. The Parting of Sam and Frodo
01:29:08.593 : en:28. The Sacrifice of Faramir
01:33:57.590 : en:29. Marshalling at Dunharrow
01:38:08.049 : en:30. Anduril - Flame of the West
01:42:49.705 : en:31. Aragorn Takes the Paths of the Dead
01:45:34.245 : en:32. "No More Despair"
01:46:57.453 : en:33. Dwimorberg - the Haunted Mountain
01:49:24.433 : en:34. The Muster of Rohan
01:51:09.997 : en:35. The Paths of the Dead
01:58:39.696 : en:36. The Siege of Gondor
02:07:41.500 : en:37. The Corsairs of Umbar
02:08:42.779 : en:38. Shelob's Lair
02:17:50.451 : en:39. Merry's Simple Courage
02:19:40.770 : en:40. Grond - The Hammer of the Underworld
02:20:17.139 : en:41. The Tomb of the Stewards
02:21:50.775 : en:42. Breaking the Gate of Gondor
02:22:57.591 : en:43. The Choices of Master Samwise
02:28:59.328 : en:44. Denethor's Madness
02:30:04.643 : en:45. The Witch King's Hour
02:32:29.663 : en:46. The Ride of the Rohirrim
02:36:44.084 : en:47. The Pyre of Denethor
02:38:51.169 : en:48. The Battle of Pelennor Fields
02:43:46.714 : en:49. "A Far Green Country"
02:45:17.138 : en:50. The Nazugl and His Prey
02:47:03.077 : en:51. The Black Ships
02:47:55.504 : en:52. Shieldmaiden of Rohan
02:48:39.757 : en:53. Victory at Minas Tirith
02:51:15.454 : en:54. The Passing of Theoden
02:53:18.160 : en:55. Oaths Fulfilled
02:54:25.102 : en:56. The Houses of Healing
02:56:41.113 : en:57. Pippin Looks After Merry
02:57:33.165 : en:58. The Tower of Cirith Ungol
03:04:29.080 : en:59. The Last Debate
03:06:11.433 : en:60. Aragorn Masters the Palantir
03:07:40.522 : en:61. The Captain and the White Lady
03:08:30.655 : en:62. In the Company of Orcs
03:12:12.043 : en:63. The Land of Shadow
03:16:23.753 : en:64. The Mouth of Sauron
03:19:39.657 : en:65. The Black Gate Opens
03:23:13.454 : en:66. "I Can't Carry It for You... But I Can Carry You"
03:25:26.253 : en:67. The Last Move
03:26:29.358 : en:68. Mount Doom
03:28:25.432 : en:69. "The Eagles Are Coming!"
03:28:59.758 : en:70. The Crack of Doom
03:34:38.012 : en:71. Sauron Defeated
03:36:51.396 : en:72. The End of All Things
03:40:20.396 : en:73. The Fellowship Reunited
03:42:43.497 : en:74. The Return of the King
03:47:36.540 : en:75. Homeward Bound
03:52:18.447 : en:76. The Grey Havens
04:01:37.047 : en:77. End Credits
04:12:44.463 : en:78. Fan Club Credits

Log x264

PLATFORM
------------------------------
OS Code: Microsoft Windows NT 6.1.7601 Service Pack 1
OS Name: Windows 7 Ultimate Service Pack 1 (x64)
Framework: 2.0.50727.5477 (v4.0)
AviSynth: AviSynth 2.58 MT v.6 (SVP edition), build:Oct 5 2010 [13:43:59]
CPU Info: AMD A10-6800K APU with Radeon(tm) HD Graphics (~4691), 4 core(s)
RAM Total: 8154Mb
Language: RUS (1251, ",")
SystemDrive: C:
XviD4PSP
------------------------------
Version: 5.10.330.0
Created: 19.03.2013 07:34:12
AppPath: C:\Program Files (x86)\XviD4PSP 5
TempPath: C:\Temp
FILES
------------------------------
Властелин колец 3 1080p 60fps.mkv >
Властелин колец 3 1080p 60fps.mkv
TASK
------------------------------
Format: MKV
Duration: 01:45:18:268 (378717)
VideoDecoder: DirectShowSource2
Resolution: 1920x1080 > 1920x792
Aspect: 2.4121 > 2.4242
VCodecPreset: x264 Q18 Custom
VEncodingMode: Quality
VideoCodec: h264 > x264
VideoBitrate: 29872 > Q18.0
Framerate: 23.976 > 59.940
FramerateModifier: AssumeFPS
SourceType: PROGRESSIVE
FieldOrder: UNKNOWN
SCRIPT
------------------------------
Import("C:\Program Files (x86)\XviD4PSP 5\dlls\AviSynth\functions\AudioFunctions.avs")
Import("C:\Program Files (x86)\XviD4PSP 5\dlls\AviSynth\functions\VideoFunctions.avs")
LoadPlugin("C:\Program Files (x86)\XviD4PSP 5\dlls\AviSynth\plugins\avss.dll")
DirectShowSource2("C:\Users\pOrtal\Downloads\Властелин колец 3 1080p 60fps.mkv", fps=23.976, preroll=15, lavs="L3", lavd="L3")
ConvertToYV12()
Crop(0, 142, -0, -142)
Lanczos4Resize(1920, 792)
###[FILTERING]###
# This script was generated by SmoothVideo Project (SVP) Manager.
# Check http://www.svp-team.com for more details.
SetMemoryMax(1024)
global svp_scheduler=true
global threads=7
global svp_cache_fwd=threads+2
LoadPlugin("C:\Program Files (x86)\SVP\plugins\svpflow1.dll")
LoadPlugin("C:\Program Files (x86)\SVP\plugins\svpflow2.dll")
SetMTMode(3,threads)
SetMTMode(2)
global crop_params=""
global resize_string=""
global super_params="{pel:1,scale:{up:0},gpu:1,full:false,rc:false}"
global analyse_params="{block:{overlap:0},main:{search:{coarse:{distance:-14,bad:{sad:2000}}}}}"
global smoothfps_params="{rate:{num:5,den:2},algo:23,mask:{cover:80},scene:{mode:0}}"
global demo_mode=0
stereo_type=0
stereo_left_selection=""
stereo_right_selection=""
########## BEGIN OF MSMoothFps.avs ##########
# This file is a part of SmoothVideo Project (SVP) 3.1.4
# This is NOT the full AVS script, all used variables are defined via
# JavaScript code that generates the full script text.
function interpolate(clip src)
{
input = crop_params=="" ? src : eval("src.crop("+crop_params+")")
input = resize_string=="" ? input : eval("input."+resize_string)
super=SVSuper(input, super_params)
vectors=SVAnalyse(super, analyse_params, src=input)
smooth=SVSmoothFps(input, super, vectors, smoothfps_params, mt=threads, url="www.svp-team.com")
return demo_mode==0 ? smooth : demo(input,smooth)
}
input=last
stereo_type==0 ? eval(""" interpolate(input)
""") : stereo_type==1 || stereo_type==3 ? eval("""
lf = interpolate(input.crop(0,0,input.width/2,0))"""+stereo_left_selection+"""
rf = interpolate(input.crop(input.width/2,0,0,0))"""+stereo_right_selection+"""
StackHorizontal(lf, rf)
""") : stereo_type==2 || stereo_type==4 ? Eval("""
lf = interpolate(input.crop(0,0,0,input.height/2))"""+stereo_left_selection+"""
rf = interpolate(input.crop(0,input.height/2,0,0))"""+stereo_right_selection+"""
StackVertical(lf, rf)""") : input
########### END OF MSMoothFps.avs ###########
###[FILTERING]###
AssumeFPS(59.940)
VIDEO ENCODING
------------------------------
Encoding video to: F:\Плавное\Властелин колец 3 1080p 60fps.mkv
x264 Q18.0 1920x792 59.940fps (378717 frames)
x264.exe: --crf 18.0 --preset medium --profile high --level 4.1 --ref 4 --aq-strength 0.9 --deblock -1:-1 --merange 24 --no-chroma-me --bframes 5 --b-adapt 2 --no-fast-pskip --no-dct-decimate --psy-rd 1.00:0.10 --partitions none --subme 9 --me umh --no-mbtree --keyint 599 --sar 1:1 --output "F:\Плавное\Властелин колец 3 1080p 60fps.mkv" "C:\Temp\0251.avs"
avs [info]: 1920x792p 1:1 @ 2997/50 fps (cfr)
x264 [info]: using SAR=1/1
x264 [warning]: MB rate (359640) > level limit (245760)
x264 [info]: using cpu capabilities: MMX2 SSE2Fast SSSE3 SSE4.2 AVX XOP FMA4 FMA3 SSEMisalign LZCNT BMI1
x264 [info]: profile High, level 4.1
x264 [info]: frame I:3474 Avg QP:19.04 size:165605
x264 [info]: frame P:279088 Avg QP:20.01 size: 45567
x264 [info]: frame B:664229 Avg QP:22.40 size: 13034
x264 [info]: consecutive B-frames: 5.2% 9.3% 16.1% 18.1% 46.0% 5.3%
x264 [info]: mb I I16..4: 4.3% 80.6% 15.0%
x264 [info]: mb P I16..4: 3.7% 0.0% 0.0% P16..4: 90.8% 0.0% 0.0% 0.0% 0.0% skip: 5.5%
x264 [info]: mb B I16..4: -2.4% -0.0% -0.0% B16..8: -574.9% -0.0% -0.0% direct:-67.3% skip:-642.7% L0:39.0% L1:53.6% BI: 7.3%
x264 [info]: 8x8 transform intra:18.5% inter:70.3%
x264 [info]: coded y,uvDC,uvAC intra: 83.0% 66.9% 29.1% inter: 30.0% 26.7% 6.3%
x264 [info]: i16 v,h,dc,p: 23% 16% 16% 46%
x264 [info]: i8 v,h,dc,ddl,ddr,vr,hd,vl,hu: 8% 7% 4% 11% 15% 14% 14% 13% 14%
x264 [info]: i4 v,h,dc,ddl,ddr,vr,hd,vl,hu: 10% 5% 2% 11% 16% 15% 15% 13% 15%
x264 [info]: i8c dc,h,v,p: 45% 24% 18% 13%
x264 [info]: Weighted P-Frames: Y:5.7% UV:2.9%
x264 [info]: ref P L0: 57.6% 13.0% 18.7% 8.3% 2.2% 0.1%
x264 [info]: ref B L0: 90.5% 7.4% 2.2%
x264 [info]: ref B L1: 95.0% 5.0%
x264 [info]: kb/s:11116.97
x264 [total]: encoded 946791 frames, 9.74 fps, 11116.97 kb/s
TIME
------------------------------
Общее время кодирования: 1 day 3 hour 15 sec
Файл получился на: 20940.10 mb
Скриншоты:
       
Время раздачи: 24/7 до 26.05.2014
-Скриншоты:
       

_________________

Создавая "Новую папку", не считайте себя Создателем - это право Вам дано Админом


Вне форума [Профиль] [ЛС]
Похожие темы
Форум Тема Автор Торрент Отв. Посл. сообщение
./templates/default/images/folder_dl.gif Обучающее видео Корпорация "Бизнес-мастер". Константин Бордунос - "Мужской резиденс" Архитектура власти [2009, Тренинг, DVDRip, RUS] (Видеоурок) Omen
1 | 0

0 | 606

5

2012-12-15 00:57
Omen Последнее
./templates/default/images/folder_dl.gif Историческая литература Джейсон Гудвин | Величие и крах Османской империи. Властители бескрайних горизонтов (2012) [FB2] Omen
1 | 0

0 | 1353

10

2014-08-24 20:09
Omen Последнее
Показать сообщения:    
Ответить на тему

Текущее время: Сегодня 15:57

Часовой пояс: GMT + 3



Вы не можете начинать темы
Вы не можете отвечать на сообщения
Вы не можете редактировать свои сообщения
Вы не можете удалять свои сообщения
Вы не можете голосовать в опросах
Вы не можете прикреплять файлы к сообщениям
Вы не можете скачивать файлы