Today is a free download without charge Download

(Pop/Retro) [10xGRAND] [24/96] VA - Around the World (vol.1 - 10)/Вокруг света (выпуски 1 - 10) - 1959-1962, WavPack (image+.cue), (Апрелевский, Ленинградский ЗГП, mono-33rpm)

Reply to topic
 
Author
Message

Koralina ®

Longevity: 9 years 4 months

Posts: 994

Location: Lithuania

Торрент-статистика

Post 24-Dec-2011 00:05

[Quote]

Various Artists Вокруг света Жанр: Pop/Retro
Год выпуска: 1959 - 1962
Лейбл: Апрелевский, Ленинградский ЗГП
Страна-производитель: USSR
Аудио кодек: WavPack
Тип рипа: image+.cue (.cue встроенный)
Формат записи: 32/192 dual mono
Формат раздачи: 24/96 mono
Общая продолжительность: 04:48:20
Источник оцифровки: автором раздачи
Код класса состояния винила: G - VG
Устройство воспроизведения: "Arija - 102"
Предварительный усилитель: AMX - 100 (LTO®)
АЦП: [email protected]
Программа-оцифровщик: Adobe Audition CS5.5

Обработка: удаление щелчков, восстановление спектра (iZotope RX), реставрация трэков (Sony Vegas)

Коментарий состояния и обработки носителей:

Увы, пластинки в довольно плачевном состоянии. Возраст и активное проигрывание корундом сделали своё дело: многочисленные громкие и тихие щелчки, "песок" и "скачки" в изобилии. Наиболее пострадавшие выпуски 3, 4, 6 и 7. Даже состояние разных трэков на одной и той же пластинке различное.
Удалены щелчки и восстановлены спектры в iZotop-е, отреставрированы (собраны по кускам) в Vegas-e "скачущие" трэки. Ещё пластинки несут на себе, характерный для тех лет, 50-тигерцовый фон, который пришлось удалять фильтром в паузах и на тихих участках фонограмм. Паузы между трэками, из-за шумности, значительно сокращены.
Вот, как-то так... К сожалению, вряд-ли удастся найти аналогичный материал в лучшем состоянии. Всем приятного прослушивания!

"Вокруг света I" 1959 год.

Апрелевский ЗГП, Д 5378-79, время звучания 00:28:22
Трэклист:
НОРВЕГИЯ: Аморадо (А. Ведо) - Ховик - квартет
ИСЛАНДИЯ: Симби - рыбак (X. Мортенс) - автор
США: Приятная прогулка (Спир) - Лес Пол
БРАЗИЛИЯ: Сухая земля (А. Багос) - Жоржи Гоуларт
КУБА: О красавец гуахиро - Мения Мартинес
ЧЕХОСЛОВАКИЯ: Уж так получилось (С. Прохазка) - Рудольф Кортез
РУМЫНИЯ: На саночках (Е. Тегер) - инстр. ансамбль
ГДР: Тип - топ (Г. Фулиш) - оркестр
ФРАНЦИЯ: Мой сын (А. Итье) - Иветт Жиро
АВСТРИЯ: Фокстрот из к/ф "Золотая симфония" (Л. Олиас) - оркестр

"Вокруг света II" 1959 год.

Апрелевский ЗГП, Д 5570-71, время звучания 00:28:09
Трэклист:
БРАЗИЛИЯ: Воспоминание о Баие (К. Дориваль) - Нора Нэй;
США: Мандолина (Фред) - Лес Пол;
АВСТРИЯ: На льду (Л. Олиас) - оркестр
ФИНЛЯНДИЯ: Самба-москито - инстр квинтет;
ФРАНЦИЯ: Мари Визон (М. Эйраль) - Жаклин Франсуа;
ПОЛЬША: Кто быстрее? (Сандор) - Е. Возняк (ксилофон);
ЧЕХОСЛОВАКИЯ: Так начинается любовь (Я. Мангл) - Иветта Симонова:
БОЛГАРИЯ: Ночь сказок (И. Цанков) - оркестр;
РУМЫНИЯ: Мелодия воспоминания (Р. Рванэ) - Мои Скопи;
ГДР: Эвелин (А. Кол) - Диэ Паранас;
СССР: Импровизация на тему песни И. Дунаевского из к/ф "Весна" (Г. Гаранян) - А. Голов (кларнет)

"Вокруг света III" 1959 год.

Апрелевский ЗГП, Д 5636-37, время звучания 00:29:23
Трэклист:
СССР: Играй, музыкант (В Людвиковский) - оркестр;
ЧЕХОСЛОВАКИЯ: Скоро будет шесть (М. Духач) - Рудольф Кортез;
ГДР: Любимые мелодии (группа авторов) - оркестр;
ФРАНЦИЯ: Что будет, то будет (Э. Ливингстон) - Жаклин Франсуа;
АВСТРИЯ: На ледяной эстраде (Л. Олиас) - оркестр;
ПОЛЬША: С тобой буду танцевать (А. Колл) - оркестр;
ИТАЛИЯ: Летаю (Доменико Модуньо) - автор;
РУМЫНИЯ: Красивая мечта (Н. Деметриад) - оркестр;
БРАЗИЛИЯ: Воспоминание (К. Дориваль) - Долорес Дуран;
США: Веселая песенка (Мерее) - Дорис Дей и Фрэнки Лейн

"Вокруг света IV" 1959 год.

Ленинградский ЗГП, Д 5712-13, время звучания 00:30:00
ФРАНЦИЯ: Иду к тебе (Г. Сальвадор) - Жаклин Франсуа;
ИТАЛИЯ: В 10 часов утра (Сарра) - Клаудио Вилла;
АНГЛИЯ: Потанцуем (Стар) - Ланни Дей (электроорган);
ПОЛЬША: С тобой вдвоем (В. Шпильман) - Ольгерд Бучек;
СССР: Однажды вечером (Э. Ванн) - оркестр;
ЧЕХОСЛОВАКИЯ: В новом доме (Л. Корбарж) - Рудольф Кортез;
РУМЫНИЯ: В окно светит луна (Э, Ионеску) - Аида Мога;
ГДР: Один за другим (Г. Зеегер, Эрдман, 3. Мей) - оркестр;
ФРГ: Городок у моря (Гландо) - Бобби Франко;
США: Кенгуру (Н. Джимбл. Л. Пол) - Лес Пол

"Вокруг света V" 1959 год.

Апрелевский ЗГП, Д 5792-93, время звучания 00:28:58
Трэклист:
МЕКСИКА: Нет, сеньор (С. Куриель) - Росита Кинтано;
США: Ночь и день (К. Портер) - оркестр;
ИТАЛИЯ: Прощай (X. Гитц) - Ван Вуд;
ФРАНЦИЯ: Ты лучшая в мире (М. Марини) - Иветт Жиро;
АНГЛИЯ: Хорошая песенка (Барт) - Томми Стил;
БЕЛЬГИЯ: По набережной (К. Вейль) - ансамбль электроинструментов;
ГДР: Приятная история (X. Тольскдорф) - Дитер Рет (гитара);
ФРГ: Твое имя (Гландо) - вокальный квинтет Серенадерс;
ВЕНГРИЯ: Жаворонок (Д. Виг) - оркестр;
ЧЕХОСЛОВАКИЯ: Рассвет (Я. Ежек) - вокальный ансамбль;
СССР: Шалун (Э. Вайи) - оркестр

"Вокруг света VI" 1960год.

Апрелевский ГЗП, Д 6231-32, время звучания 00:29:45
Трэклист:
БРАЗИЛИЯ: Пой, страна моя (А. Вермельо) - Жоржи Гоуларт;
ПЕРУ: Для тебя эта песня (нар. мелодия) - Има Сумак;
США: Скажи это под музыку (И. Берлин) - Пэт Бун;
ПОЛЬША: Мы станцуем вместе (А. Праделла) - оркестр;
ГДР: Ты со мной (Арбо и Саутер) - Хайди Брюль;
БОЛГАРИЯ: Под часами (И. Цанков) - оркестр;
ФРАНЦИЯ: Жизнь (Л. Ферре) - Катрин Соваж;
АНГЛИЯ: Первая любовь (Кортей) - Томми Стил;
ЮГОСЛАВИЯ: Типи - типсо (X. Гитц) - Мариана Держай;
ИТАЛИЯ: До свиданья, бамбина (Доменико Модуньо) - автор;
СССР: Огни города (В. Игнатьев) - оркестр

"Вокруг света VII" 1960 год.

Апрелевский ЗГП, Д 6497-98, время звучания 00:26:25
Трэклист:
ИТАЛИЯ: Ладзарелла (Д. Модуньо) - Альдо Конти;
АНГЛИЯ: Маленький цветок (С. Беше) - Монти Саншайн (кларнет);
ФРАНЦИЯ: Вальс дружбы (Н. Гленсберг) - Эдит Пиаф;
ФРГ: Размышление (Колло) - оркестр;
ГДР: Волшебная луна (Нархольц и Ренард) - Хапди
СССР: Как вам нравится (Э. Вайи) - оркестр;
ВЕНГРИЯ: Где он бродит (Хорват) - Марта Зараи;
ЧЕХОСЛОВАКИЯ: Люблю тебя (Я. Вейвода) - оркестр;
ГАВАИ: Прекрасные руки девушки (нар. песня) - Халелоке Кахауолопуа и Артур Годфрей;
США: Раз и навсегда (Смит) - вокальный ансамбль

"Вокруг света VIII" 1960 год.

Апрелевский ЗГП, Д 7313-14, время звучания 00:30:07
Трэклист:
СССР: Парад трубачей (В. Елпидифоров) - оркестр;
ФРАНЦИЯ: Молю тебя (М. Бондер) - Франсис Дегель;
АНГЛИЯ: Это настоящее чувство (Дж. Гершвин) - оркестр;
ФРГ: Я люблю (Игельхофф) - Рика Дес и Ио Роланд;
ИСПАНИЯ: Моя дорогая (Вильям) - оркестр;
ИТАЛИЯ: Телеграмма (М. Марини) - Клаудио Вилла;
РУМЫНИЯ: Забудем (Э. Ионеску) - Феди Арие;
ГДР: Радостный напев (Р. Эрбе) - оркестр;
США: Танцуем бегин (К. Портер) - Элла Фицджеральд;
ГАВАИ: Белые цветы имбиря (народная песня) - Халелоке Кахауолопуа

"Вокруг света IX" 1961 год.

Апрелевский ЗГП, Д 0007573-74, время звучания 00:28:35
Трэклист:
СССР: Всегда вместе (Б. Кырвер) - оркестр;
ГДР: Прего (Дике) - Мике Телькамп;
ФРГ: Капли дождя (Ральм) - оркестр;
ПОЛЬША: Счастливое облачко (В. Кубичек) - Наташа Зыльска;
США: Это ты (Р. Нобл) - вокальный ансамбль, оркестр;
ПАРАГВАЙ: Почему (Р. Лос-Андес) - Луис Парана:
ЭКВАДОР: Утром (Н. Аквавива) - оркестр;
ФРАНЦИЯ: Море (Ш. Трене) - Рене Гляно;
ИСПАНИЯ: На острове (обр. Венде) - оркестр;
АНГЛИЯ: Шестнадцать тонн (М. Тревис) - Герберт Рид

"Вокруг света X" 1962 год.

Апрелевский ЗГП, Д 9363-64, время звучания 00:27:40
Трэклист:
ФРАНЦИЯ: Любовь (Р. Виней) - Рене Марке;
ПЕРУ: Лима (обр. Н. Анильо) - оркестр;
США: Если я буду с тобой (Ф. Крейн) - Дорис Дей;
КУБА: Продавец орехов (Э. Лекуона) - оркестр;
ЧЕХОСЛОВАКИЯ: Я влюблена (Я. Вомачка) - Иветта Симонова;
ГОЛЛАНДИЯ: Фантазия - Рей Колиньон (электроорган);
ШВЕЙЦАРИЯ: Всегда любовь (X. Греко) - Вико Торриани;
АНГЛИЯ: Когда я вижу тебя (М. Хьюг) - оркестр;
ГДР: Дорогой мой (Н. Мирке) - Хельда Брауэр;
СССР: Приятная прогулка (А. Варламов) - оркестр

Уровень записи, спектр, АЧХ:



На всякий случай .cue (txt) для wv:

1 Серия

REM GENRE Pop/Retro
REM DATE 1959
REM COMENT Апрелевский ЗГП Д 5378-79 Grand
PERFORMER "VA"
TITLE "Вокруг света (I)"
FILE "01. Vokrug Sveta (I) - 1959.wv" WAVE
TRACK 01 AUDIO
TITLE "01. Аморадо"
PERFORMER "Ховик - квартет (Норвегия)"
INDEX 01 00:00:00
TRACK 02 AUDIO
TITLE "02. Симби - рыбак"
PERFORMER "X. Мортенс (Исландия)"
INDEX 01 02:13:37
TRACK 03 AUDIO
TITLE "03. Приятная прогулка"
PERFORMER "Лес Пол (США)"
INDEX 01 06:11:60
TRACK 04 AUDIO
TITLE "04. Сухая земля"
PERFORMER "Жоржи Гоуларт (Бразилия)"
INDEX 01 08:03:57
TRACK 05 AUDIO
TITLE "05. О красавец гуахиро"
PERFORMER "Мения Мартинес (Куба)"
INDEX 01 12:47:39
TRACK 06 AUDIO
TITLE "06. Уж так получилось"
PERFORMER "Рудольф Кортез (Чехословакия)"
INDEX 01 15:12:28
TRACK 07 AUDIO
TITLE "07. На саночках"
PERFORMER "инстр. ансамбль (Румыния)"
INDEX 01 17:44:34
TRACK 08 AUDIO
TITLE "08. Тип - топ"
PERFORMER "оркестр (ГДР)"
INDEX 01 20:23:21
TRACK 09 AUDIO
TITLE "09. Мой сын"
PERFORMER "Иветт Жиро (Франция)"
INDEX 01 22:52:25
TRACK 10 AUDIO
TITLE "10. Фокстрот из к/ф Золотая симфония"
PERFORMER "оркестр (Австрия)"
INDEX 01 25:49:18

2 Серия

REM GENRE Pop/Retro
REM DATE 1959
REM COMENT Апрелевский ЗГП Д 5570-71 Grand
PERFORMER "VA"
TITLE "Вокруг света (II)"
FILE "02. Vokrug Sveta (II) - 1959.wv" WAVE
TRACK 01 AUDIO
TITLE "01. Воспоминание о Баие"
PERFORMER Нора Нэй (Бразилия)
INDEX 01 00:00:00
TRACK 02 AUDIO
TITLE "02. Мандолина"
PERFORMER Лес Пол (США)
INDEX 01 02:44:62
TRACK 03 AUDIO
TITLE "03. На льду"
PERFORMER оркестр Л. Олиаса (Австрия)
INDEX 01 05:06:00
TRACK 04 AUDIO
TITLE "04. Самба - москито"
PERFORMER инстр квинтет (Финляндия)
INDEX 01 06:58:44
TRACK 05 AUDIO
TITLE "05. Мари Визон"
PERFORMER Жаклин Франсуа (Франция)
INDEX 01 08:55:49
TRACK 06 AUDIO
TITLE "06. Кто быстрее?"
PERFORMER Е. Возняк - ксилофон (Польша)
INDEX 01 11:13:53
TRACK 07 AUDIO
TITLE "07. Так начинается любовь"
PERFORMER Иветта Симонова (Чехословакия)
INDEX 01 12:57:68
TRACK 08 AUDIO
TITLE "08. Ночь сказок"
PERFORMER оркестр (Болгария)
INDEX 01 15:32:52
TRACK 09 AUDIO
TITLE "09. Мелодия воспоминания"
PERFORMER Мои Скопи (Румыния)
INDEX 01 18:02:28
TRACK 10 AUDIO
TITLE "10. Эвелин"
PERFORMER Диэ Паранас (ГДР)
INDEX 01 21:35:10
TRACK 11 AUDIO
TITLE "11. Импровизация на тему песни И. Дунаевского из кинофильма Весна"
PERFORMER ансамбль Мелодия п/у Г. Гараняна, А. Голов - кларнет (СССР)
INDEX 01 24:35:19

3 Серия

REM GENRE Pop/Retro
REM DATE 1959
REM COMENT Апрелевский ЗГП 5636-37 Grand
PERFORMER "VA"
TITLE "Вокруг света (III)"
FILE "03. Vokrug Sveta (III) - 1959.wv" WAVE
TRACK 01 AUDIO
TITLE "01. Играй, музыкант"
PERFORMER оркестр (CCCР)
INDEX 01 00:00:00
TRACK 02 AUDIO
TITLE "02. Скоро будет шесть"
PERFORMER Рудольф Кортез (Чехословакия)
INDEX 01 03:11:69
TRACK 03 AUDIO
TITLE "03. Любимые мелодии"
PERFORMER оркестр (ГДР)
INDEX 01 06:20:26
TRACK 04 AUDIO
TITLE "04. Что будет, то будет"
PERFORMER Жаклин Франсуа (Франция)
INDEX 01 10:08:59
TRACK 05 AUDIO
TITLE "05. На ледяной эстраде "
PERFORMER оркестр (Австрия)
INDEX 01 12:11:33
TRACK 06 AUDIO
TITLE "06. С тобой буду танцевать"
PERFORMER оркестр (Польша)
INDEX 01 15:15:53
TRACK 07 AUDIO
TITLE "07. Летаю"
PERFORMER Доменико Модуньо (Италия)
INDEX 01 18:15:36
TRACK 08 AUDIO
TITLE "08. Красивая мечта"
PERFORMER оркестр (Румыния)
INDEX 01 20:56:49
TRACK 09 AUDIO
TITLE "09. Воспоминание"
PERFORMER Долорес Дуран (Бразилия)
INDEX 01 24:20:43
TRACK 10 AUDIO
TITLE "10. Веселая песенка"
PERFORMER Дорис Дей и Фрэнки Лейн (США)
INDEX 01 27:21:34

4 Серия

REM GENRE Pop/Retro
REM DATE 1959
REM COMENT Ленинградский ЗГП Д 5712-13 Grand
PERFORMER "VA"
TITLE "Вокруг света (IV)"
FILE "04. Vokrug Sveta (IV) - 1959.wv" WAVE
TRACK 01 AUDIO
TITLE "01. Иду к тебе"
PERFORMER Жаклин Франсуа (Франция)
INDEX 01 00:00:00
TRACK 02 AUDIO
TITLE "02. В 10 часов утра"
PERFORMER Клаудио Вилла (Италия)
INDEX 01 02:15:58
TRACK 03 AUDIO
TITLE "03. Потанцуем"
PERFORMER Ланни Дей - электроорган (Англия)
INDEX 01 05:05:18
TRACK 04 AUDIO
TITLE "04. С тобой вдвоем"
PERFORMER Ольгерд Бучек (Польша)
INDEX 01 07:41:01
TRACK 05 AUDIO
TITLE "05. Однажды вечером"
PERFORMER оркестр (СССР)
INDEX 01 12:11:68
TRACK 06 AUDIO
TITLE "06. В новом доме"
PERFORMER Рудольф Кортез (Чехословакия)
INDEX 01 15:11:39
TRACK 07 AUDIO
TITLE "07. В окно светит луна"
PERFORMER Аида Мога (Румыния)
INDEX 01 17:47:48
TRACK 08 AUDIO
TITLE "08. Один за другим"
PERFORMER оркестр (ГДР)
INDEX 01 21:34:60
TRACK 09 AUDIO
TITLE "09. Городок у моря"
PERFORMER Бобби Франко (ФРГ)
INDEX 01 24:22:62
TRACK 10 AUDIO
TITLE "10. Кенгуру"
PERFORMER Лес Пол (США)
INDEX 01 27:22:64

5 Серия

REM GENRE Pop/Retro
REM DATE 1959
REM COMENT Апрелевский ЗГП Д 5792-93 Grand
PERFORMER "VA"
TITLE "Вокруг света (V)"
FILE "05. Vokrug Sveta (V) - 1959.wv" WAVE
TRACK 01 AUDIO
TITLE "01. Нет, сеньор"
PERFORMER Росита Кинтано (Мексика)
INDEX 01 00:00:00
TRACK 02 AUDIO
TITLE "02. Ночь и день"
PERFORMER оркестр (США)
INDEX 01 02:02:46
TRACK 03 AUDIO
TITLE "03. Прощай"
PERFORMER Ван Вуд (Италия)
INDEX 01 04:29:24
TRACK 04 AUDIO
TITLE "04. Ты лучшая в мире"
PERFORMER Иветт Жиро (Франция)
INDEX 01 07:35:18
TRACK 05 AUDIO
TITLE "05. Хорошая песенка"
PERFORMER Томми Стил (Англия)
INDEX 01 10:28:24
TRACK 06 AUDIO
TITLE "06. По набережной"
PERFORMER ансамбль электроинструментов (Бельгия)
INDEX 01 12:33:68
TRACK 07 AUDIO
TITLE "07. Приятная история"
PERFORMER Дитер Рет - гитара (ГДР)
INDEX 01 14:53:71
TRACK 08 AUDIO
TITLE "08. Твое имя"
PERFORMER вокальный квинтет Серенадерс (ФРГ)
INDEX 01 17:47:68
TRACK 09 AUDIO
TITLE "09. Жаворонок"
PERFORMER оркестр (Венгрия)
INDEX 01 20:24:26
TRACK 10 AUDIO
TITLE "10. Рассвет"
PERFORMER вокальный ансамбль (Чехословакия)
INDEX 01 22:58:02
TRACK 11 AUDIO
TITLE "11. Шалун"
PERFORMER оркестр (СССР)
INDEX 01 26:43:09

6 Серия

REM GENRE Pop/Retro
REM DATE 1960
REM COMENT Апрелевский ЗГП Д 6231-32 Grand
PERFORMER "VA"
TITLE "Вокруг света (VI)"
FILE "06. Vokrug Sveta (VI) - 1960.wv" WAVE
TRACK 01 AUDIO
TITLE "01. Пой, страна моя"
PERFORMER Жоржи Гоуларт (Бразилия)
INDEX 01 00:00:00
TRACK 02 AUDIO
TITLE "02. Для тебя эта песня"
PERFORMER Има Сумак (Перу)
INDEX 01 03:01:08
TRACK 03 AUDIO
TITLE "03. Скажи это под музыку"
PERFORMER Пэт Бун (США)
INDEX 01 06:01:72
TRACK 04 AUDIO
TITLE "04. Мы станцуем вместе"
PERFORMER оркестр (Польша)
INDEX 01 08:17:24
TRACK 05 AUDIO
TITLE "05. Ты со мной"
PERFORMER Хайди Брюль (ГДР)
INDEX 01 11:02:42
TRACK 06 AUDIO
TITLE "06. Под часами"
PERFORMER оркестр (Болгария)
INDEX 01 13:42:55
TRACK 07 AUDIO
TITLE "07. Жизнь"
PERFORMER Катрин Соваж (Франция)
INDEX 01 16:22:69
TRACK 08 AUDIO
TITLE "08. Первая любовь"
PERFORMER Томми Стил (Англия)
INDEX 01 18:36:07
TRACK 09 AUDIO
TITLE "09. Типи - типсо"
PERFORMER Мариана Держай (Югославия)
INDEX 01 21:05:46
TRACK 10 AUDIO
TITLE "10. До свиданья, бамбина"
PERFORMER Доменико Модуньо (Италия)
INDEX 01 23:55:03
TRACK 11 AUDIO
TITLE "11. Огни города"
PERFORMER оркестр (СССР)
INDEX 01 26:56:09

7 Серия

REM GENRE Pop/Retro
REM DATE 1960
REM COMENT Апрелевский ЗГП Д 6497-98 Grand
PERFORMER "VA"
TITLE "Вокруг света (VII)"
FILE "07. Vokrug Sveta (VII) - 1960.wv" WAVE
TRACK 01 AUDIO
TITLE "01. Ладзарелла"
PERFORMER Альдо Конти (Италия)
INDEX 01 00:00:00
TRACK 02 AUDIO
TITLE "02. Маленький цветок"
PERFORMER Монти Саншайн - кларнет (Англия)
INDEX 01 02:46:60
TRACK 03 AUDIO
TITLE "03. Вальс дружбы"
PERFORMER Эдит Пиаф (Франция)
INDEX 01 05:30:03
TRACK 04 AUDIO
TITLE "04. Размышление"
PERFORMER оркестр (ФРГ)
INDEX 01 07:56:58
TRACK 05 AUDIO
TITLE "05. Волшебная луна"
PERFORMER Хапди (ГДР)
INDEX 01 10:35:39
TRACK 06 AUDIO
TITLE "06. Как вам нравится"
PERFORMER оркестр (СССР)
INDEX 01 13:02:69
TRACK 07 AUDIO
TITLE "07. Где он бродит"
PERFORMER Марта Зараи (Венгрия)
INDEX 01 15:29:02
TRACK 08 AUDIO
TITLE "08. Люблю тебя"
PERFORMER оркестр (Чехословакия)
INDEX 01 18:51:22
TRACK 09 AUDIO
TITLE "09. Прекрасные руки девушки"
PERFORMER Халелоке Кахауолопуа и Артур Годфрей (Гаваи)
INDEX 01 21:42:35
TRACK 10 AUDIO
TITLE "10. Раз и навсегда"
PERFORMER вокальный ансамбль (США)
INDEX 01 23:57:06

8 Серия

REM GENRE Pop/Retro
REM DATE 1960
REM COMENT Апрелевский ЗГП Д 7313-14 Grand
PERFORMER "VA"
TITLE "Вокруг света (VIII)"
FILE "08. Vokrug Sveta (VIII) - 1960.wv" WAVE
TRACK 01 AUDIO
TITLE "01. Парад трубачей"
PERFORMER оркестр (CCCР)
INDEX 01 00:00:00
TRACK 02 AUDIO
TITLE "02. Молю тебя"
PERFORMER Франсис Дегель (Франция)
INDEX 01 02:45:02
TRACK 03 AUDIO
TITLE "03. Это настоящее чувство"
PERFORMER оркестр (Англия)
INDEX 01 05:57:33
TRACK 04 AUDIO
TITLE "04. Я люблю"
PERFORMER Рика Дес и Ио Роланд (ФРГ)
INDEX 01 08:07:72
TRACK 05 AUDIO
TITLE "05. Моя дорогая"
PERFORMER оркестр (Испания)
INDEX 01 10:48:56
TRACK 06 AUDIO
TITLE "06. Телеграмма"
PERFORMER Клаудио Вилла (Италия)
INDEX 01 13:16:73
TRACK 07 AUDIO
TITLE "07. Забудем"
PERFORMER Феди Арие (Румыния)
INDEX 01 15:48:70
TRACK 08 AUDIO
TITLE "08. Радостный напев"
PERFORMER оркестр (ГДР)
INDEX 01 20:03:41
TRACK 09 AUDIO
TITLE "09. Танцуем бегин"
PERFORMER Элла Фицджеральд (США)
INDEX 01 23:07:49
TRACK 10 AUDIO
TITLE "10. Белые цветы имбиря"
PERFORMER Халелоке Кахауолопуа (Гаваи)
INDEX 01 26:42:18

9 Серия

REM GENRE Pop/Retro
REM DATE 1961
REM COMENT Апрелевский ЗГП Д 0007573-74 Grand
PERFORMER "VA"
TITLE "Вокруг света (IX)"
FILE "09. Vokrug Sveta (IX) - 1961.wv" WAVE
TRACK 01 AUDIO
TITLE "01. Всегда вместе"
PERFORMER оркестр (СССР)
INDEX 01 00:00:00
TRACK 02 AUDIO
TITLE "02. Прего"
PERFORMER Мике Телькамп (ГДР)
INDEX 01 03:04:09
TRACK 03 AUDIO
TITLE "03. Капли дождя"
PERFORMER оркестр (ФРГ)
INDEX 01 05:45:62
TRACK 04 AUDIO
TITLE "04. Счастливое облачко"
PERFORMER Наташа Зыльска (Польша)
INDEX 01 08:08:05
TRACK 05 AUDIO
TITLE "05. Это ты"
PERFORMER вокальный ансамбль, оркестр (США)
INDEX 01 11:34:66
TRACK 06 AUDIO
TITLE "06. Почему"
PERFORMER Луис Парана (Парагвай)
INDEX 01 13:44:15
TRACK 07 AUDIO
TITLE "07. Утром"
PERFORMER оркестр (Эквадор)
INDEX 01 16:32:22
TRACK 08 AUDIO
TITLE "08. Море"
PERFORMER Рене Гляно (Франция)
INDEX 01 19:20:14
TRACK 09 AUDIO
TITLE "09. На острове"
PERFORMER оркестр (Испания)
INDEX 01 23:32:74
TRACK 10 AUDIO
TITLE "10. Шестнадцать тонн"
PERFORMER Герберт Рид (США)
INDEX 01 26:01:13

10 Серия

REM GENRE Pop/Retro
REM DATE 1962
REM COMENT Апрелевский ЗГП Д 9363-64 Grand
PERFORMER "VA"
TITLE "Вокруг света (X)"
FILE "10. Vokrug Sveta (X) - 1962.wv" WAVE
TRACK 01 AUDIO
TITLE "01. Любовь"
PERFORMER Рене Марке (Франция)
INDEX 01 00:00:00
TRACK 02 AUDIO
TITLE "02. Лима"
PERFORMER оркестр (Перу)
INDEX 01 01:59:74
TRACK 03 AUDIO
TITLE "03. Если я буду с тобой"
PERFORMER Дорис Дей (США)
INDEX 01 04:40:65
TRACK 04 AUDIO
TITLE "04. Продавец орехов"
PERFORMER оркестр (Куба)
INDEX 01 07:27:73
TRACK 05 AUDIO
TITLE "05. Я влюблена"
PERFORMER Иветта Симонова (Чехословакия)
INDEX 01 09:55:42
TRACK 06 AUDIO
TITLE "06. Фантазия"
PERFORMER Рей Колиньон - электроорган (Голландия)
INDEX 01 13:03:34
TRACK 07 AUDIO
TITLE "07. Всегда любовь"
PERFORMER Вико Торриани (Швейцария)
INDEX 01 16:13:51
TRACK 08 AUDIO
TITLE "08. Когда я вижу тебя"
PERFORMER оркестр (Англия)
INDEX 01 19:01:24
TRACK 09 AUDIO
TITLE "09. Дорогой мой"
PERFORMER Хельда Брауэр (ГДР)
INDEX 01 21:26:49
TRACK 10 AUDIO
TITLE "10. Приятная прогулка"
PERFORMER оркестр (СССР)
INDEX 01 24:27:26
Материал переоцифрован на другом оборудовании и представлен в лучшем качестве.

_________________
Other forum [Profile] [PM]
Display posts from previous:    
Reply to topic

The time now is: Today 19:55

All times are GMT + 3 Hours



You cannot post new topics in this forum
You cannot reply to topics in this forum
You cannot edit your posts in this forum
You cannot delete your posts in this forum
You cannot vote in polls in this forum
You cannot attach files in this forum
You cannot download files in this forum