Today is a free download without charge Download

В тишине (Александр Федулов) [1989, Рисованный мультфильм, VHSRip]

Reply to topic
 
Author
Message

Omen ®

Longevity: 7 years 11 months

Posts: 181087

Торрент-статистика

Post 18-May-2014 20:01

[Quote]

В тишине
Страна: СССР
Жанр: Рисованный мультфильм
Продолжительность: 00:06:06
Год выпуска: 1989
Русские субтитры: нет
Режиссёр: Александр Федулов
Роли озвучивали: Б.Плотников,Л.Ильина,А.Пожаров
Описание: По мотивам рассказа Х.Кортасара «Заколоченная дверь», о бедной женщине, которая не могла родить детей. Отсутствие детей – это всегда трагедия, а когда женщина не может иметь детей, то для нее это самый большой удар в жизни. Женщина как хранительница домашнего очага стремится к продолжению рода. Ей присущ материнский инстинкт, который ищет своей реализации…
Мультик передает глубинные страдания женщины, которая лишена возможности воспитать собственного ребенка. Эти обстоятельства ведут к глубинным нарушениям психики, затяжной депрессии и, конечно же, страданиям. Женщина просто не может пережить свое бесплодие, кажется, что весь мир напоминает ей о ее горе.
Доп. информация: «Экран»
Сценарий: А.Орлов
Художник-постановщик:Е.Муханова
Оператор:В.Милованов
Композитор:В.Екимовский
Качество: VHSRip
Формат: AVI
Видео: 704x528 (1.33:1), 25 fps, XviD MPEG-4 ~2147 kbps avg, 0.23 bit/pixel
Аудио: 48 kHz, AC3 Dolby Digital, 1/0 (C) ch, ~96.00 kbps avg
Субтитры: нет

Подробные технические данные

Format : AVIFormat/Info : Audio Video InterleaveFile size : 98.6 MiBDuration : 6mn 6sOverall bit rate : 2 253 KbpsWriting application : VirtualDubModRus 1.5.10.2 (build 2542/release)Copyright : Rutracker.orgComment : VHSRip by dvdss
VideoID : 0Format : MPEG-4 VisualFormat profile : Advanced [email protected] settings, BVOP : 2Format settings, QPel : NoFormat settings, GMC : No warppointsFormat settings, Matrix : CustomCodec ID : XVIDCodec ID/Hint : XviDDuration : 6mn 6sBit rate : 2 147 KbpsWidth : 704 pixelsHeight : 528 pixelsDisplay aspect ratio : 5:4Original display aspect ratio : 4:3Frame rate : 25.000 fpsColor space : YUVChroma subsampling : 4:2:0Bit depth : 8 bitsScan type : ProgressiveCompression mode : LossyBits/(Pixel*Frame) : 0.231Stream size : 93.9 MiB (95%)Writing library : XviD 65
AudioID : 1Format : AC-3Format/Info : Audio Coding 3Mode extension : CM (complete main)Format settings, Endianness : BigCodec ID : 2000Duration : 6mn 6sBit rate mode : ConstantBit rate : 96.0 KbpsChannel(s) : 1 channelChannel positions : Front: CSampling rate : 48.0 KHzBit depth : 16 bitsCompression mode : LossyStream size : 4.20 MiB (4%)Alignment : Split accross interleavesInterleave, duration : 40 ms (1.00 video frame)Interleave, preload duration : 500 ms

Скриншоты

Other forum [Profile] [PM]
Display posts from previous:    
Reply to topic

The time now is: Today 19:00

All times are GMT + 3 Hours



You cannot post new topics in this forum
You cannot reply to topics in this forum
You cannot edit your posts in this forum
You cannot delete your posts in this forum
You cannot vote in polls in this forum
You cannot attach files in this forum
You cannot download files in this forum