Today is a free download without charge Download

Попугай Club (Виталий Мухаметзянов) [2014, мультфильм, комедия, семейный, DVB]

Reply to topic
 
Author
Message

Omen ®

Longevity: 8 years 11 months

Posts: 181086

Торрент-статистика

Post 17-May-2014 20:00

[Quote]

Попугай Club
Страна: россия
Жанр: мультфильм, комедия, семейный
Продолжительность: 01:29:00
Год выпуска: 2014
Перевод: Не требуется
Русские субтитры: нет
Режиссёр: Виталий Мухаметзянов
Роли озвучивали: Анастасия Заворотнюк, Олеся Железняк, Юлий Гусман, Эммануил Виторган, Алексей Булдаков, Виктор Логинов, Мария Кожевникова, Олег Верещагин, Дмитрий Хрусталев, Елена Борщева и Жанна Фриске
Описание: Из зоопарка похищен уникальный зверь - голубоглазый коала! Следы коварного преступления выводят на скромную московскую семью Жировых. Под видом благотворительности и причастности к обществу "Гринпис" этот бессовестный клан похищает с целью продажи редких зверей!
Доп. информация: Возрастные ограничения 12+
Сэмпл
Качество: DVB
Формат: TS
Видео: AVC, 720х576 (3:4), 2730 Kbps, 25 fps, Bits/(Pixel*Frame) : 0.263
Аудио: MP 2, 192 Kbps, 2 ch, 48.0 KHz
Субтитры: нет

Подробные технические данные

Format : MPEG-TS File size : 1.93 GiB Duration : 1h 29mn Overall bit rate : 3 077 Kbps Video #2091 ID : 2091 (0x82B) Menu ID : 1 (0x1) Format : AVC Format/Info : Advanced Video Codec Format profile : [email protected] Format settings, CABAC : Yes Format settings, ReFrames : 3 frames Codec ID : 27 Duration : 1h 29mn Bit rate : 2 731 Kbps Width : 720 pixels Height : 576 pixels Display aspect ratio : 4:3 Frame rate : 25.000 fps Standard : Component Color space : YUV Chroma subsampling : 4:2:0 Bit depth : 8 bits Scan type : Interlaced Scan order : Top Field First Bits/(Pixel*Frame) : 0.263 Stream size : 1.72 GiB (89%) Color primaries : BT.470-6 System B, BT.470-6 System G, BT.601-6 625, BT.1358 625, BT.1700 625 PAL, BT.1700 625 SECAM Transfer characteristics : BT.470-6 System B, BT.470-6 System G Matrix coefficients : BT.470-6 System B, BT.470-6 System G, BT.601-6 625, BT.1358 625, BT.1700 625 PAL, BT.1700 625 SECAM, IEC 61966-2-4 601 Audio #2092 ID : 2092 (0x82C) Menu ID : 1 (0x1) Format : MPEG Audio Format version : Version 1 Format profile : Layer 2 Codec ID : 3 Duration : 1h 29mn Bit rate mode : Constant Bit rate : 192 Kbps Channel(s) : 2 channels Sampling rate : 48.0 KHz Compression mode : Lossy Stream size : 124 MiB (6%) Language : English

Скриншоты

Other forum [Profile] [PM]
Display posts from previous:    
Reply to topic

The time now is: Today 10:19

All times are GMT + 3 Hours



You cannot post new topics in this forum
You cannot reply to topics in this forum
You cannot edit your posts in this forum
You cannot delete your posts in this forum
You cannot vote in polls in this forum
You cannot attach files in this forum
You cannot download files in this forum