Today is a free download without charge Download

Победа / Victoria (Роберт Саакянц) [1997, мультфильм, WEBRip]

Reply to topic
 
Author
Message

Omen ®

Longevity: 7 years 11 months

Posts: 181087

Торрент-статистика

Post 17-May-2014 05:31

[Quote]

Победа / Victoria
Страна: Армения
Жанр: мультфильм
Продолжительность: 00:05:52
Год выпуска: 1997
Перевод: Не требуется
Русские субтитры: нет
Режиссёр: Роберт Саакянц
Описание: Шуточная вариация сюжета о рыцаре, сражающемся с трёхголовым драконом ради освобождения принцессы.
Качество: WEBRip
Формат: AVI
Видео: 1698 kbps, 688х496 (1.387), 25.000 fps, MPEG-4 Visual (XviD)
Аудио: 128 kbps, 44.1 kHz, 2 channels, MPEG Audio (MP3)
Субтитры: отсутствуют

Подробные технические данные

GeneralComplete name : Victoria (1997).aviFormat : AVIFormat/Info : Audio Video InterleaveFile size : 77.1 MiBDuration : 5mn 52sOverall bit rate : 1 836 KbpsWriting application : VirtualDubMod 1.5.10.3 (build 2550/release)Writing library : VirtualDubMod build 2550/release
VideoID : 0Format : MPEG-4 VisualFormat profile : Advanced [email protected] settings, BVOP : 2Format settings, QPel : NoFormat settings, GMC : No warppointsFormat settings, Matrix : CustomCodec ID : XVIDCodec ID/Hint : XviDDuration : 5mn 52sBit rate : 1 698 KbpsWidth : 688 pixelsHeight : 496 pixelsDisplay aspect ratio : 1.387Frame rate : 25.000 fpsColor space : YUVChroma subsampling : 4:2:0Bit depth : 8 bitsScan type : ProgressiveCompression mode : LossyBits/(Pixel*Frame) : 0.199Stream size : 71.4 MiB (92%)Writing library : XviD 65
AudioID : 1Format : MPEG AudioFormat version : Version 1Format profile : Layer 3Mode : Joint stereoMode extension : MS StereoCodec ID : 55Codec ID/Hint : MP3Duration : 5mn 52sBit rate mode : ConstantBit rate : 128 KbpsChannel(s) : 2 channelsSampling rate : 44.1 KHzCompression mode : LossyStream size : 5.38 MiB (7%)Alignment : Split accross interleavesInterleave, duration : 40 ms (1.00 video frame)Interleave, preload duration : 500 msWriting library : LAME3.99rEncoding settings : -m j -V 4 -q 3 -lowpass 17 -b 128

Скриншоты

Other forum [Profile] [PM]
Display posts from previous:    
Reply to topic

The time now is: Today 07:08

All times are GMT + 3 Hours



You cannot post new topics in this forum
You cannot reply to topics in this forum
You cannot edit your posts in this forum
You cannot delete your posts in this forum
You cannot vote in polls in this forum
You cannot attach files in this forum
You cannot download files in this forum