Today is a free download without charge Download

(nu jazz, chanson, soul, french, female vocal) Zaz - Zaz - 2010, Studio Album, FLAC (tracks+cue), lossless

Reply to topic
 
Author
Message

Paullo ®

Gender:

Longevity: 10 years

Posts: 393

Location: деактивировано, причина: - Последний визит: 2017-06-22 darkos_bot 12.06.19г

Торрент-статистика

Post 19-Nov-2010 23:01

[Quote]

Zaz - Zaz
Производство: Франция
Жанр: nu jazz, chanson, soul, french, female vocal
Год выпуска альбома: 2010
Аудиокодек: FLAC
Тип рипа: tracks+cue
Год выпуска издания: 2010
Лейбл издания: PLAYON - SONY MUSIC
Тип издания: Studio Album
Полный скан буклета: Да
Продолжительность: 00:39:04
Трэклист:
01. Les Passants
02. Je Veux
03. Le Long De La Route
04. La Fee
05. Trop Sensible
06. Prends Garde A Ta Langue
07. Ni Oui Ni Non
08. Port Coton
09. J’Aime A Nouveau
10. Dans Ma Rue
11. Eblouie Par La Nuit

Доп. информация:
Zaz (Изабель Жефруа) - французская певица, родом из города Тур. Поет в небольших кафе и клубах Парижа. Она не имеет специального музыкального образования, но это не мешает ей писать собственные песни, которые имеют хороший отклик у слушателей. Помимо песен собственного сочинения, в исполнении Zaz прекрасно звучат известные песни французских исполнителей, которые благодаря неповторимому стилю Zaz приобретают новое, интересное звучание.
Стиль Zaz - это смесь музыки соул, джаза, французского шансона - "всего понемногу", как говорит она сама.
В январе 2009 года она выиграла конкурс молодых талантов (аналог нашей "Фабрики звезд") в Париже и теперь впереди у нее запись собственного диска. В России Zaz выступает с пианистом Жюльеном Лифзик. Жюльен закончил Парижскую консерваторию по классу фортепиано, кроме того Жюльен - профессиональный актер. Вместе они - прекрасный дуэт, дополняющий друг друга.

Содержание индексной карты (.CUE)

TITLE "Zaz"
FILE "01 - Les Passants.wav" WAVE
TRACK 01 AUDIO
TITLE "Les Passants"
PERFORMER "Zaz"
INDEX 01 00:00:00
FILE "02 - Je Veux.wav" WAVE
TRACK 02 AUDIO
TITLE "Je Veux"
PERFORMER "Zaz"
INDEX 01 00:00:00
FILE "03 - Le Long De La Route.wav" WAVE
TRACK 03 AUDIO
TITLE "Le Long De La Route"
PERFORMER "Zaz"
INDEX 01 00:00:00
FILE "04 - La Fee.wav" WAVE
TRACK 04 AUDIO
TITLE "La Fee"
PERFORMER "Zaz"
INDEX 01 00:00:00
FILE "05 - Trop Sensible.wav" WAVE
TRACK 05 AUDIO
TITLE "Trop Sensible"
PERFORMER "Zaz"
INDEX 01 00:00:00
FILE "06 - Prends Garde A Ta Langue.wav" WAVE
TRACK 06 AUDIO
TITLE "Prends Garde A Ta Langue"
PERFORMER "Zaz"
INDEX 01 00:00:00
FILE "07 - Ni Oui Ni Non.wav" WAVE
TRACK 07 AUDIO
TITLE "Ni Oui Ni Non"
PERFORMER "Zaz"
INDEX 01 00:00:00
FILE "08 - Port Coton.wav" WAVE
TRACK 08 AUDIO
TITLE "Port Coton"
PERFORMER "Zaz"
INDEX 01 00:00:00
FILE "09 - J'aime A Nouveau.wav" WAVE
TRACK 09 AUDIO
TITLE "J'aime A Nouveau"
PERFORMER "Zaz"
INDEX 01 00:00:00
FILE "10 - Dans Ma Rue.wav" WAVE
TRACK 10 AUDIO
TITLE "Dans Ma Rue"
PERFORMER "Zaz"
INDEX 01 00:00:00
FILE "11 - Eblouie Par La Nuit.wav" WAVE
TRACK 11 AUDIO
TITLE "Eblouie Par La Nuit"
PERFORMER "Zaz"
INDEX 01 00:00:00

info

---------------------------------------------------------------------
Zaz - Zaz
---------------------------------------------------------------------
Artist...............: Zaz
Album................: Zaz
Genre................: Pop / Folk
Source...............: CD
Year.................: 2010
Ripper...............: Exact Audio Copy 0.9b4 & PIONEER DVD-RW DVRTD08A
Codec................: Free Lossless Audio Codec (FLAC)
Version..............: reference libFLAC 1.2.1 20070917
Quality..............: Lossless, (avg. compression: 60 Перегрузка
Channels.............: Stereo / 44100 HZ / 16 Bit
Tags.................: VorbisComment
Information..........: Zaz is a French pop singer with a Gypsy jazz
style who made her chart-topping eponymous album debut in 2010. Born
Isabelle Geffroy on May 1, 1980, in Tours, Indre-et-Loire, France,
she performed as a singer for much of her life. Her vocals are often
compared to those of Edith Piaf. In association with the Play On label,
she made her full-length solo debut with the self-titled album Zaz in 2010.
Featuring a few songs written and produced by Raphael, the album was well
received by critics and spawned...
My Space
www.myspace.com/zazofficiel
Label
PLAYON - SONY MUSIC
Ripped by............: GRFC on 6/10/2010
Posted by............: Greek Filesharer on 6/10/2010
Included.............: NFO, LOG, CUE, M3U, TXT
Covers...............: Front
---------------------------------------------------------------------
Tracklisting
---------------------------------------------------------------------
1. (00:03:33) Zaz - Les Passants
2. (00:03:39) Zaz - Je Veux
3. (00:03:37) Zaz - Le Long De La Route
4. (00:02:53) Zaz - La Fee
5. (00:04:00) Zaz - Trop Sensible
6. (00:03:41) Zaz - Prends Garde A Ta Langue
7. (00:03:32) Zaz - Ni Oui Ni Non
8. (00:02:56) Zaz - Port Coton
9. (00:03:51) Zaz - J'aime A Nouveau
10. (00:04:40) Zaz - Dans Ma Rue
11. (00:02:41) Zaz - Eblouie Par La Nuit
Playing Time.........: 00:39:04
Total Size...........: 236,50 MB
Album Review
The self-titled album debut of Zaz is one of the more exciting French revelations of 2010,
boasting a refreshingly unique gypsy jazz style as well as plenty of contemporary pop appeal.
Thirty years old at the time of her solo album debut, Zaz is a seasoned vocalist with years of
experience as a performer, and her vocals are indeed a wonder to behold. She's a talented jazz
vocalist, for sure, and her resemblance to Edith Piaf is striking. In addition to her singing,
Zaz is a gifted songwriter credited with either writing or co-writing six of the 11 songs on her
debut album. French pop star Raphael is credited with writing three of the remaining songs,
"La Fee," "Port Coton," and "Eblouie par la Nuit," and Kerredine Soltani is credited with
writing the standout lead single, "Je Veux." Moreover, Raphael is credited with producing
four songs on the album: the three that he wrote, plus "Trop Sensible." Alban Sautour,
Germain Guyot, and Soltani are also credited with production, and their work is commendable.
The gypsy jazz style of the album is tastefully produced, never sounding retro or cliched and,
more importantly, never taking anything away from Zaz herself. Moreover, the contributions of
four different producers makes for a diverse sound, with the Raphael songs in particular standing
out from the others. Clocking in at 11 songs in 39 minutes, Zaz doesn't overstay its welcome and
leaves you craving more after the awe-inspiring closing track by Raphael, "Eblouie par la Nuit."
Impressive from all standpoints, Zaz is a strong contender for French pop revelation of the year.
~ Jason Birchmeier, Rovi

Лог создания рипа

Exact Audio Copy V0.99 prebeta 4 from 23. January 2008
EAC extraction logfile from 6. October 2010, 15:30
Zaz / Zaz
Used drive : PIONEER DVD-RW DVRTD08A Adapter: 0 ID: 0
Read mode : Secure
Utilize accurate stream : Yes
Defeat audio cache : Yes
Make use of C2 pointers : No
Read offset correction : 48
Overread into Lead-In and Lead-Out : No
Fill up missing offset samples with silence : Yes
Delete leading and trailing silent blocks : No
Null samples used in CRC calculations : Yes
Used interface : Native Win32 interface for Win NT & 2000
Gap handling : Appended to previous track
Used output format : User Defined Encoder
Selected bitrate : 1024 kBit/s
Quality : High
Add ID3 tag : No
Command line compressor : Crogram Files (x86)Exact Audio CopyFLACFLAC.EXE
Additional command line options : -8 -V -T "ARTIST=%a" -T "TITLE=%t" -T "ALBUM=%g" -T "DATE=%y" -T "TRACKNUMBER=%n" -T "TOTALTRACKS=%x" -T "GENRE=%m" -T "ALBUMARTIST=%v" -T "ALBUM ARTIST=%v" -T "COMMENT=EAC Secure Mode, Test & Copy, AccurateRip, FLAC -8" %
TOC of the extracted CD
Track | Start | Length | Start sector | End sector
---------------------------------------------------------
1 | 0:00.00 | 3:33.30 | 0 | 16004
2 | 3:33.30 | 3:39.14 | 16005 | 32443
3 | 7:12.44 | 3:37.03 | 32444 | 48721
4 | 10:49.47 | 2:53.32 | 48722 | 61728
5 | 13:43.04 | 3:59.69 | 61729 | 79722
6 | 17:42.73 | 3:41.24 | 79723 | 96321
7 | 21:24.22 | 3:31.51 | 96322 | 112197
8 | 24:55.73 | 2:56.25 | 112198 | 125422
9 | 27:52.23 | 3:50.45 | 125423 | 142717
10 | 31:42.68 | 4:40.25 | 142718 | 163742
11 | 36:23.18 | 2:40.69 | 163743 | 175811
Track 1
Filename D:Zaz - Zaz (2010) [FLAC]�1 - Les Passants.wav
Pre-gap length 0:00:02.00
Peak level 98.8 %
Track quality 100.0 %
Test CRC 4F428440
Copy CRC 4F428440
Cannot be verified as accurate (confidence 3) [F7C5A3F1], AccurateRip returned [77FBEEDB]
Copy OK
Track 2
Filename D:Zaz - Zaz (2010) [FLAC]�2 - Je Veux.wav
Peak level 98.8 %
Track quality 100.0 %
Test CRC 41A9BB6C
Copy CRC 41A9BB6C
Cannot be verified as accurate (confidence 3) [290AE1EA], AccurateRip returned [CAD1B670]
Copy OK
Track 3
Filename D:Zaz - Zaz (2010) [FLAC]�3 - Le Long De La Route.wav
Peak level 98.8 %
Track quality 100.0 %
Test CRC E49E3446
Copy CRC E49E3446
Cannot be verified as accurate (confidence 3) [CAE6857F], AccurateRip returned [0AC4BD9F]
Copy OK
Track 4
Filename D:Zaz - Zaz (2010) [FLAC]�4 - La Fee.wav
Peak level 98.8 %
Track quality 100.0 %
Test CRC A8491C24
Copy CRC A8491C24
Cannot be verified as accurate (confidence 3) [CC74FE3E], AccurateRip returned [7C16B240]
Copy OK
Track 5
Filename D:Zaz - Zaz (2010) [FLAC]�5 - Trop Sensible.wav
Peak level 98.8 %
Track quality 100.0 %
Test CRC C7DBB142
Copy CRC C7DBB142
Cannot be verified as accurate (confidence 3) [064C0795], AccurateRip returned [EF71C43B]
Copy OK
Track 6
Filename D:Zaz - Zaz (2010) [FLAC]�6 - Prends Garde A Ta Langue.wav
Peak level 98.8 %
Track quality 100.0 %
Test CRC 8E536940
Copy CRC 8E536940
Cannot be verified as accurate (confidence 3) [F7C7AEAF], AccurateRip returned [7942B38F]
Copy OK
Track 7
Filename D:Zaz - Zaz (2010) [FLAC]�7 - Ni Oui Ni Non.wav
Peak level 98.8 %
Track quality 100.0 %
Test CRC B88A5412
Copy CRC B88A5412
Cannot be verified as accurate (confidence 3) [64F71F7E], AccurateRip returned [91C52360]
Copy OK
Track 8
Filename D:Zaz - Zaz (2010) [FLAC]�8 - Port Coton.wav
Peak level 98.8 %
Track quality 99.9 %
Test CRC D6EBC854
Copy CRC D6EBC854
Cannot be verified as accurate (confidence 3) [E3776C10], AccurateRip returned [B562E9D4]
Copy OK
Track 9
Filename D:Zaz - Zaz (2010) [FLAC]�9 - J'aime A Nouveau.wav
Peak level 96.2 %
Track quality 100.0 %
Test CRC 1A68AD8C
Copy CRC 1A68AD8C
Cannot be verified as accurate (confidence 3) [FA31AAE3], AccurateRip returned [BB328DE7]
Copy OK
Track 10
Filename D:Zaz - Zaz (2010) [FLAC]10 - Dans Ma Rue.wav
Peak level 95.2 %
Track quality 100.0 %
Test CRC 10F23AE1
Copy CRC 10F23AE1
Cannot be verified as accurate (confidence 3) [66714C85], AccurateRip returned [372925C9]
Copy OK
Track 11
Filename D:Zaz - Zaz (2010) [FLAC]11 - Eblouie Par La Nuit.wav
Peak level 98.8 %
Track quality 100.0 %
Test CRC 2FBBE89F
Copy CRC 2FBBE89F
Cannot be verified as accurate (confidence 3) [210B82FF], AccurateRip returned [D3070877]
Copy OK
No tracks could be verified as accurate
You may have a different pressing from the one(s) in the database
No errors occurred
End of status report

cover


youtube


_________________
сами мы не местные...


Last edited by Paullo on 2010-11-19 23:02; edited 1 time in total
Other forum [Profile] [PM]
Display posts from previous:    
Reply to topic

The time now is: Today 09:31

All times are GMT + 3 Hours



You cannot post new topics in this forum
You cannot reply to topics in this forum
You cannot edit your posts in this forum
You cannot delete your posts in this forum
You cannot vote in polls in this forum
You cannot attach files in this forum
You cannot download files in this forum