Today is a free download without charge Download

Миссия невыполнима. Трилогия / Mission Impossible. Trilogy (Брайан Де Пальма, Джон Ву, Джеффри Абрамс / Brian De Palma, John Woo, J.J. Abrams) [1080p] [1996-2006 г., Боевик, триллер, BDRemux]

Reply to topic
 
Author
Message

Omen ®

Longevity: 8 years 5 months

Posts: 181087

Торрент-статистика

Post 22-Dec-2011 12:02

[Quote]

--

О релизе

Ремуксы созданы на основе китайских изданий с AVC.
Различия нового издания с АVC от предыдущего с MPEG-2
..........................AVC.................................MPEG-2
   
   
   
MPEG-2 издание краснит (заметнее на втором и третьем), AVC чуть четче (особенно заметно на третьем).

О звуке

Оригинальные английские DTS-HD дороги были почищены от мусора и шумов (респект за труды kukushka) - http://www.check2pic.ru/compare/3172/
Русские DTS-HD МА получены микшированием чистых голосов переводчиков с каналами оригинальной HD дорожки и подбором громкости. (это относится и к дорогам Гаврилова и Визгунова). Так же проверены на синхронность все дороги, при необходимости подогнаны (в т.ч. дороги Латышева и дубляжа на третью часть).
Большинство эфирных дорожек (ОРТ, СТС и т.п.) были как-то криво собраны - ни еак ни сценарист их не понимали. Пришлось пересобирать.

Особые благодарности

  • kukushka за очистку и подготовку оригинальных DTS-HD дорог.
  • Loki1982 за дороги Латышева и голос Гаврилова на первую и третью часть.
  • edich2 за подборку эфирных дорог.
--

Миссия: невыполнима / Mission: Impossible

Миссия: невыполнима / Mission: Impossible
Слоган: «Expect the Impossible»
Год выпуска: 1996
Страна: США
Жанр: боевик, триллер, приключения
Продолжительность: 1:50:12
Перевод: Профессиональный (многоголосый, закадровый), Авторский (одноголосый)
Русские субтитры: есть
Режиссер: Брайан Де Пальма / Brian De Palma-В ролях:
Том Круз (Ethan Hunt,), Джон Войт (Jim Phelps), Эммануэль Беар (Claire Phelps), Генри Черни (Eugene Kittridge), Жан Рено (Franz Krieger), Винг Реймз (Luther Stickell), Кристин Скотт Томас (Sarah Davies), Ванесса Редгрейв (Max), Дейл Дай (Frank Barnes), Марчел Юреш (Alexander Golitsyn), Ион Карамитру (Zozimov), Ингеборга Дапкунайте (Hannah Williams)-Описание:
Агент ЦРУ Итон Хант оказался в положении подозреваемого в предательстве «крота», из-за которого погибли несколько членов его команды, включая руководителя группы Джима Фелпса. В живых осталась еще только коллега Ханта - жена Фелпса агент Клэр. Чтобы снять с себя обвинения в предательстве, Ханту надо найти настоящего «крота».- -MPAA: - Детям до 13 лет просмотр не желателен-Качество: BDRemux
Формат: MKV
Видео кодек: H.264
Аудио кодек: DTS-HD, AC3
Видео: 1920x1080p, 23,976 fps, ~31914 kbps
Аудио 1: Russian (AC3, 5.1, 448 kbps / 48 kHz) (Многоголосый, Позитив-Мультимедия)
Аудио 2: Russian (DTS-HD MA, 5.1, 3782 kbps / 48 kHz / 24-bit (DTS Core: 5.1 / 48 kHz / 1509 kbps / 24-bit)) (Двухголосый, Гланц и Королева)
Аудио 3: Russian (DTS-HD MA, 5.1, 3783 kbps / 48 kHz / 24-bit (DTS Core: 5.1 / 48 kHz / 1509 kbps / 24-bit)) (Авторский, Гаврилов)
Аудио 4: Russian (DTS-HD MA, 5.1, 3782 kbps / 48 kHz / 24-bit (DTS Core: 5.1 / 48 kHz / 1509 kbps / 24-bit)) (Авторский, Визгунов)
Аудио 5: Russian (AC3, 5.1, 384 kbps / 48 kHz) (Многоголосый, Киномания)
Аудио 6: Russian (AC3, 5.1, 384 kbps / 48 kHz) (Авторский, Латышев)
Аудио 7: Russian (AC3, 2.0, 224 kbps / 48 kHz) (Многоголосый, ОРТ)
Аудио 8: Russian (AC3, 2.0, 192 kbps / 48 kHz) (Многоголосый, Премьер-Видео)
Аудио 9: Russian (DTS, 5.1, 768 kbps / 48 kHz) (Авторский, Живов)
Аудио 10: Russian (AC3, 5.1, 384 kbps / 48 kHz) (Многоголосый, НТВ)
Аудио 11: Russian (AC3, 2.0, 224 kbps / 48 kHz) (Многоголосый, СТС)
Аудио 12: Ukrainian (AC3, 5.1, 448 kbps / 48 kHz) (Многоголосый)
Аудио 13: English (DTS-HD MA, 5.1, 3774 kbps / 48 kHz / 24-bit (DTS Core: 5.1 / 48 kHz / 1509 kbps / 24-bit))
Субтитры: Русские, Английские-

Награды

Премия канала «MTV», 1997 год
Номинации (1):
• Лучшая экшн-сцена
Золотая малина, 1997 год
Номинации (1):
• Худший блокбастер (фильм, собравший более 100 млн. долларов)
Сатурн, 1997 год
Номинации (1):
• Лучший приключенческий фильм, боевик или триллер

Знаете ли вы, что...

Знаете ли Вы что....
  • В тоннеле под Ла-Маншем поезда встречных направлений ходят по изолированным тоннелям: герой с крыши поезда никак не мог видеть идущий навстречу состав.
  • Изначально, на роль Клэр Брайан Де Пальма предлагал Жюльет Бинош.
  • Это первый фильм, который показывался в более чем 3000-х кинотеатрах в США.
  • Роль Ванессы Редгрейв изначально писалась для мужчины.
  • Фильм снят по телесериалу Брюса Геллера.

...из книги «3500 кинорецензий»

Для американцев, как известно, вообще нет ничего невыполнимого. Вот и Итэн Хант, ловкий и хитроумный агент ЦРУ, который работает под прикрытием и даже использует специальные маски для лица (ну, чем не Фантомас?!), чтобы оставаться неузнанным, занят, как раз в соответствии со своей фамилией, охотой в современном смысле этого слова. Но однажды он был подставлен собственными корыстолюбивыми коллегами и заподозрен начальниками, поэтому вынужден самостоятельно выпутываться из крайне затруднительного положения. То проникает в закрытый для доступа банк данных в штаб-квартире ЦРУ в Лэнгли, то умудряется остаться в живых даже на крыше бешено несущегося трансатлантического экспресса (а эту неправдоподобную сцену можно счесть вообще фантастической).
Красавчик и любимчик публики Том Круз после инфернальной роли в «Интервью с вампиром» вернулся к амплуа романтического героя боевиков, доказывая, что может быть супер-асом не только в лётном деле («Супер-ас») и автогонках («Дни грома»), но и в требующей проблесков ума работе законспирированного международного разведчика. А режиссёр Брайан Де Пальма, который всегда ходил в кинематографических оригиналах Голливуда, делавших стильные картины, но без особого зрительского успеха, тоже смог прыгнуть намного «выше крыши», побив личный кассовый рекорд всего лишь за 6 дней проката фильма «Миссия невыполнима». Однако внушительные общие результаты (бюджет $75 млн. был превзойдён только в США почти в 2,5 раза) оказались вовсе не пределом — последовавшее через четыре года продолжение, которое осуществил уже Джон Ву, собрало ещё больше денег и в Америке, и в остальном мире.
-

Скриншоты

           

MediaInfo

Код:
Формат                           : Matroska
Версия формата                   : Version 2
Размер файла                     : 38,9 Гбайт
Продолжительность                : 1 ч. 50 м.
Режим общего битрейта            : Переменный
Общий поток                      : 50,5 Мбит/сек
Дата кодирования                 : UTC 2011-12-18 23:05:20
Программа кодирования            : mkvmerge v3.4.0 ('Rapunzel') сборка от May 15 2010 09:38:20
Библиотека кодирования           : libebml v0.8.0 + libmatroska v0.9.0
Видео
Идентификатор                    : 1
Формат                           : AVC
Формат/Информация                : Advanced Video Codec
Профиль формата                  : [email protected]
Параметр CABAC формата           : Да
Параметр ReFrames формата        : 2 кадра
Идентификатор кодека             : V_MPEG4/ISO/AVC
Продолжительность                : 1 ч. 50 м.
Вид битрейта                     : Переменный
Битрейт                          : 39,7 Мбит/сек
Ширина                           : 1920 пикселей
Высота                           : 1080 пикселей
Соотношение сторон               : 16:9
Частота кадров                   : 23,976 кадра/сек
Цветовое пространство            : YUV
Субдискретизация насыщенности    : 4:2:0
Битовая глубина                  : 8 бит
Тип развёртки                    : Прогрессивная
Бит/(Пиксели*Кадры)              : 0.798
Размер потока                    : 30,5 Гбайт (79%)
Default                          : Да
Forced                           : Нет
Аудио #1
Идентификатор                    : 2
Формат                           : AC-3
Формат/Информация                : Audio Coding 3
Расширение режима                : CM (complete main)
Идентификатор кодека             : A_AC3
Продолжительность                : 1 ч. 50 м.
Вид битрейта                     : Постоянный
Битрейт                          : 448 Кбит/сек
Каналы                           : 6 каналов
Расположение каналов             : Front: L C R, Side: L R, LFE
Частота                          : 48,0 КГц
Битовая глубина                  : 16 бит
Метод сжатия                     : С потерями
Размер потока                    : 353 Мбайт (1%)
Заголовок                        : Многоголосый, Позитив-Мультимедия, AC3 5.1, 448 kbps
Язык                             : Russian
Default                          : Да
Forced                           : Нет
Аудио #2
Идентификатор                    : 3
Формат                           : DTS
Формат/Информация                : Digital Theater Systems
Профиль формата                  : MA / Core
Идентификатор кодека             : A_DTS
Продолжительность                : 1 ч. 50 м.
Вид битрейта                     : Переменный
Битрейт                          : 1561 Кбит/сек / 1510 Кбит/сек
Каналы                           : 6 каналов
Расположение каналов             : Front: L C R, Side: L R, LFE
Частота                          : 48,0 КГц
Битовая глубина                  : 24 бит
Метод сжатия                     : Без потерь / Lossy
Заголовок                        : Двухголосый, Гланц и Королева, DTS-HD 5.1
Язык                             : Russian
Default                          : Нет
Forced                           : Нет
Аудио #3
Идентификатор                    : 4
Формат                           : DTS
Формат/Информация                : Digital Theater Systems
Профиль формата                  : MA / Core
Идентификатор кодека             : A_DTS
Продолжительность                : 1 ч. 50 м.
Вид битрейта                     : Переменный
Битрейт                          : 1561 Кбит/сек / 1510 Кбит/сек
Каналы                           : 6 каналов
Расположение каналов             : Front: L C R, Side: L R, LFE
Частота                          : 48,0 КГц
Битовая глубина                  : 24 бит
Метод сжатия                     : Без потерь / Lossy
Заголовок                        : Авторский, Гаврилов, DTS-HD 5.1
Язык                             : Russian
Default                          : Нет
Forced                           : Нет
Аудио #4
Идентификатор                    : 5
Формат                           : DTS
Формат/Информация                : Digital Theater Systems
Профиль формата                  : MA / Core
Идентификатор кодека             : A_DTS
Продолжительность                : 1 ч. 50 м.
Вид битрейта                     : Переменный
Битрейт                          : 1561 Кбит/сек / 1510 Кбит/сек
Каналы                           : 6 каналов
Расположение каналов             : Front: L C R, Side: L R, LFE
Частота                          : 48,0 КГц
Битовая глубина                  : 24 бит
Метод сжатия                     : Без потерь / Lossy
Заголовок                        : Авторский, Визгунов, DTS-HD 5.1
Язык                             : Russian
Default                          : Нет
Forced                           : Нет
Аудио #5
Идентификатор                    : 6
Формат                           : AC-3
Формат/Информация                : Audio Coding 3
Расширение режима                : CM (complete main)
Идентификатор кодека             : A_AC3
Продолжительность                : 1 ч. 50 м.
Вид битрейта                     : Постоянный
Битрейт                          : 384 Кбит/сек
Каналы                           : 6 каналов
Расположение каналов             : Front: L C R, Side: L R, LFE
Частота                          : 48,0 КГц
Битовая глубина                  : 16 бит
Метод сжатия                     : С потерями
Размер потока                    : 303 Мбайт (1%)
Заголовок                        : Многоголосый, Киномания, AC3 5.1, 384 kbps
Язык                             : Russian
Default                          : Нет
Forced                           : Нет
Аудио #6
Идентификатор                    : 7
Формат                           : AC-3
Формат/Информация                : Audio Coding 3
Расширение режима                : CM (complete main)
Идентификатор кодека             : A_AC3
Продолжительность                : 1 ч. 50 м.
Вид битрейта                     : Постоянный
Битрейт                          : 384 Кбит/сек
Каналы                           : 6 каналов
Расположение каналов             : Front: L C R, Side: L R, LFE
Частота                          : 48,0 КГц
Битовая глубина                  : 16 бит
Метод сжатия                     : С потерями
Размер потока                    : 303 Мбайт (1%)
Заголовок                        : Авторский, Латышев, AC3 5.1, 384 kbps
Язык                             : Russian
Default                          : Нет
Forced                           : Нет
Аудио #7
Идентификатор                    : 8
Формат                           : AC-3
Формат/Информация                : Audio Coding 3
Расширение режима                : CM (complete main)
Идентификатор кодека             : A_AC3
Продолжительность                : 1 ч. 50 м.
Вид битрейта                     : Постоянный
Битрейт                          : 224 Кбит/сек
Каналы                           : 2 канала
Расположение каналов             : Front: L R
Частота                          : 48,0 КГц
Битовая глубина                  : 16 бит
Метод сжатия                     : С потерями
Размер потока                    : 177 Мбайт (0%)
Заголовок                        : Многоголосый, ОРТ, AC3 2.0, 224 kbps
Язык                             : Russian
Default                          : Нет
Forced                           : Нет
Аудио #8
Идентификатор                    : 9
Формат                           : AC-3
Формат/Информация                : Audio Coding 3
Расширение режима                : CM (complete main)
Идентификатор кодека             : A_AC3
Продолжительность                : 1 ч. 50 м.
Вид битрейта                     : Постоянный
Битрейт                          : 192 Кбит/сек
Каналы                           : 2 канала
Расположение каналов             : Front: L R
Частота                          : 48,0 КГц
Битовая глубина                  : 16 бит
Метод сжатия                     : С потерями
Размер потока                    : 151 Мбайт (0%)
Заголовок                        : Многоголосый, Премьер-Видео, AC3 2.0, 192 kbps
Язык                             : Russian
Default                          : Нет
Forced                           : Нет
Аудио #9
Идентификатор                    : 10
Формат                           : DTS
Формат/Информация                : Digital Theater Systems
Идентификатор кодека             : A_DTS
Продолжительность                : 1 ч. 50 м.
Вид битрейта                     : Постоянный
Битрейт                          : 755 Кбит/сек
Каналы                           : 6 каналов
Расположение каналов             : Front: L C R, Side: L R, LFE
Частота                          : 48,0 КГц
Битовая глубина                  : 24 бит
Метод сжатия                     : С потерями
Размер потока                    : 595 Мбайт (1%)
Заголовок                        : Авторский, Живов, DTS 5.1, 768 kbps
Язык                             : Russian
Default                          : Нет
Forced                           : Нет
Аудио #10
Идентификатор                    : 11
Формат                           : AC-3
Формат/Информация                : Audio Coding 3
Расширение режима                : CM (complete main)
Идентификатор кодека             : A_AC3
Продолжительность                : 1 ч. 50 м.
Вид битрейта                     : Постоянный
Битрейт                          : 384 Кбит/сек
Каналы                           : 6 каналов
Расположение каналов             : Front: L C R, Side: L R, LFE
Частота                          : 48,0 КГц
Битовая глубина                  : 16 бит
Метод сжатия                     : С потерями
Размер потока                    : 303 Мбайт (1%)
Заголовок                        : Многоголосый, НТВ, AC3 5.1, 384 kbps
Язык                             : Russian
Default                          : Нет
Forced                           : Нет
Аудио #11
Идентификатор                    : 12
Формат                           : AC-3
Формат/Информация                : Audio Coding 3
Расширение режима                : CM (complete main)
Идентификатор кодека             : A_AC3
Продолжительность                : 1 ч. 50 м.
Вид битрейта                     : Постоянный
Битрейт                          : 224 Кбит/сек
Каналы                           : 2 канала
Расположение каналов             : Front: L R
Частота                          : 48,0 КГц
Битовая глубина                  : 16 бит
Метод сжатия                     : С потерями
Размер потока                    : 177 Мбайт (0%)
Заголовок                        : Многоголосый, СТС, AC3 2.0, 224 kbps
Язык                             : Russian
Default                          : Нет
Forced                           : Нет
Аудио #12
Идентификатор                    : 13
Формат                           : AC-3
Формат/Информация                : Audio Coding 3
Расширение режима                : CM (complete main)
Идентификатор кодека             : A_AC3
Продолжительность                : 1 ч. 50 м.
Вид битрейта                     : Постоянный
Битрейт                          : 448 Кбит/сек
Каналы                           : 6 каналов
Расположение каналов             : Front: L C R, Side: L R, LFE
Частота                          : 48,0 КГц
Битовая глубина                  : 16 бит
Метод сжатия                     : С потерями
Размер потока                    : 353 Мбайт (1%)
Заголовок                        : Многоголосый, AC3 5.1, 448 kbps
Язык                             : Ukrainian
Default                          : Нет
Forced                           : Нет
Аудио #13
Идентификатор                    : 14
Формат                           : DTS
Формат/Информация                : Digital Theater Systems
Профиль формата                  : MA / Core
Идентификатор кодека             : A_DTS
Продолжительность                : 1 ч. 50 м.
Вид битрейта                     : Переменный
Битрейт                          : 1705 Кбит/сек / 1510 Кбит/сек
Каналы                           : 6 каналов
Расположение каналов             : Front: L C R, Side: L R, LFE
Частота                          : 48,0 КГц
Битовая глубина                  : 24 бит
Метод сжатия                     : Без потерь / Lossy
Заголовок                        : English, DTS-HD 5.1
Язык                             : English
Default                          : Нет
Forced                           : Нет
Текст #1
Идентификатор                    : 15
Формат                           : UTF-8
Идентификатор кодека             : S_TEXT/UTF8
Идентификатор кодека/Информация  : UTF-8 Plain Text
Язык                             : Russian
Default                          : Нет
Forced                           : Нет
Текст #2
Идентификатор                    : 16
Формат                           : UTF-8
Идентификатор кодека             : S_TEXT/UTF8
Идентификатор кодека/Информация  : UTF-8 Plain Text
Язык                             : English
Default                          : Нет
Forced                           : Нет
--

Миссия: невыполнима 2 / Mission: Impossible II

Миссия: невыполнима 2 / Mission: Impossible II
Слоган: «Expect the impossible again»
Год выпуска: 2000
Страна: США, Германия
Жанр: боевик, триллер, приключения
Продолжительность: 2:03:35
Перевод: Профессиональный (многоголосый, закадровый), Авторский (одноголосый)
Русские субтитры: есть
Режиссер: Джон Ву / John Woo
В ролях: Том Круз (Ethan Hunt,), Дюгрэй Скотт (Sean Ambrose), Тэнди Ньютон (Nyah Nordoff-Hall), Винг Реймз (Luther Stickell), Ричард Роксбург (Hugh Stamp), Джон Полсон (Billy Baird), Брендан Глисон (John C. McCloy), Раде Шербеджия (Dr. Nekhorvich), Уильям Мапотер (Wallis), Доминик Пурселл (Ulrich), Мэттью Уилкинсон (Michael), Николас Белл (Accountant)
Описание: Если мир внезапно оказывается перед лицом ужасной катастрофы, есть лишь один человек, который может исправить это ужасное положение. Его имя Итан Хант, он прирожденный специалист по разрешению самых неразрешимых ситуаций.
Теперь у Итана - новый, строгий начальник, новая очаровательная возлюбленная, новый коварный противник и новое задание, которое простому смертному просто не по плечу. Но Итан Хант не был бы Итаном Хантом, если бы не смог с блеском выполнить очередную невыполнимую миссию: справиться с кровожадными террористами и спасти планету от ужасного, смертельного вируса!- -MPAA: - Детям до 13 лет просмотр не желателен-Качество: BDRemux
Формат: MKV
Видео кодек: H.264
Аудио кодек: DTS-HD, AC3
Видео: 1920x1080p, 23,976 fps, ~31731 kbps
Аудио 1: Russian (AC3, 5.1, 448 kbps / 48 kHz) (Многоголосый, Позитив-Мультимедия)
Аудио 2: Russian (DTS-HD MA, 5.1, 4235 kbps / 48 kHz / 24-bit (DTS Core: 5.1 / 48 kHz / 1509 kbps / 24-bit)) (Двухголосый, Гланц и Королева)
Аудио 3: Russian (DTS-HD MA, 5.1, 4233 kbps / 48 kHz / 24-bit (DTS Core: 5.1 / 48 kHz / 1509 kbps / 24-bit)) (Авторский, Гаврилов)
Аудио 4: Russian (DTS-HD MA, 5.1, 4230 kbps / 48 kHz / 24-bit (DTS Core: 5.1 / 48 kHz / 1509 kbps / 24-bit)) (Авторский, Визгунов)
Аудио 5: Russian (AC3, 5.1, 448 kbps / 48 kHz) (Авторский, Латышев)
Аудио 6: Russian (AC3, 2.0, 192 kbps / 48 kHz) (Многоголосый, Премьер-Видео)
Аудио 7: Russian (AC3, 2.0, 224 kbps / 48 kHz) (Многоголосый, СТС)
Аудио 8: Russian (AC3, 5.1, 448 kbps / 48 kHz) (Многоголосый, НТВ)
Аудио 9: Russian (AC3, 2.0, 224 kbps / 48 kHz) (Многоголосый, ОРТ)
Аудио 10: Ukrainian (AC3, 5.1, 448 kbps / 48 kHz) (Многоголосый)
Аудио 11: English (DTS-HD MA, 5.1, 4224 kbps / 48 kHz / 24-bit (DTS Core: 5.1 / 48 kHz / 1509 kbps / 24-bit))
Субтитры: Русские (4 варианта), Английские-

Награды

Премия канала «MTV», 2001 год
Победитель (2):
• Лучшая экшн-сцена
• Лучшая мужская роль (Том Круз)
Золотая малина, 2001 год
Номинации (2):
• Худшая женская роль второго плана (Тэнди Ньютон)
• Худший римейк/сиквел

Знаете ли вы, что...

Знаете ли Вы что....
  • Персонаж Энтони Хопкинса стал единственным, кто использует фразу «миссия: невыполнима».
-

Скриншоты

           

Media Info

Код:
Формат                           : Matroska
Версия формата                   : Version 2
Размер файла                     : 44,1 Гбайт
Продолжительность                : 2 ч. 3 м.
Режим общего битрейта            : Переменный
Общий поток                      : 51,1 Мбит/сек
Дата кодирования                 : UTC 2011-12-19 15:35:03
Программа кодирования            : mkvmerge v3.4.0 ('Rapunzel') сборка от May 15 2010 09:38:20
Библиотека кодирования           : libebml v0.8.0 + libmatroska v0.9.0
Видео
Идентификатор                    : 1
Формат                           : AVC
Формат/Информация                : Advanced Video Codec
Профиль формата                  : [email protected]
Параметр CABAC формата           : Да
Параметр ReFrames формата        : 2 кадра
Параметр GOP формата             : M=1, N=10
Идентификатор кодека             : V_MPEG4/ISO/AVC
Продолжительность                : 2 ч. 3 м.
Вид битрейта                     : Переменный
Битрейт                          : 41,1 Мбит/сек
Ширина                           : 1920 пикселей
Высота                           : 1080 пикселей
Соотношение сторон               : 16:9
Частота кадров                   : 23,976 кадра/сек
Цветовое пространство            : YUV
Субдискретизация насыщенности    : 4:2:0
Битовая глубина                  : 8 бит
Тип развёртки                    : Прогрессивная
Бит/(Пиксели*Кадры)              : 0.827
Размер потока                    : 35,5 Гбайт (80%)
Default                          : Да
Forced                           : Нет
Аудио #1
Идентификатор                    : 2
Формат                           : AC-3
Формат/Информация                : Audio Coding 3
Расширение режима                : CM (complete main)
Идентификатор кодека             : A_AC3
Продолжительность                : 2 ч. 3 м.
Вид битрейта                     : Постоянный
Битрейт                          : 448 Кбит/сек
Каналы                           : 6 каналов
Расположение каналов             : Front: L C R, Side: L R, LFE
Частота                          : 48,0 КГц
Битовая глубина                  : 16 бит
Метод сжатия                     : С потерями
Размер потока                    : 396 Мбайт (1%)
Заголовок                        : Многоголосый, Позитив-Мультимедия, AC3 5.1, 448 kbps
Язык                             : Russian
Default                          : Да
Forced                           : Нет
Аудио #2
Идентификатор                    : 3
Формат                           : DTS
Формат/Информация                : Digital Theater Systems
Профиль формата                  : MA / Core
Идентификатор кодека             : A_DTS
Продолжительность                : 2 ч. 3 м.
Вид битрейта                     : Переменный
Битрейт                          : 1561 Кбит/сек / 1510 Кбит/сек
Каналы                           : 6 каналов
Расположение каналов             : Front: L C R, Side: L R, LFE
Частота                          : 48,0 КГц
Битовая глубина                  : 24 бит
Метод сжатия                     : Без потерь / Lossy
Заголовок                        : Двухголосый, Гланц и Королева, DTS-HD 5.1
Язык                             : Russian
Default                          : Нет
Forced                           : Нет
Аудио #3
Идентификатор                    : 4
Формат                           : DTS
Формат/Информация                : Digital Theater Systems
Профиль формата                  : MA / Core
Идентификатор кодека             : A_DTS
Продолжительность                : 2 ч. 3 м.
Вид битрейта                     : Переменный
Битрейт                          : 1561 Кбит/сек / 1510 Кбит/сек
Каналы                           : 6 каналов
Расположение каналов             : Front: L C R, Side: L R, LFE
Частота                          : 48,0 КГц
Битовая глубина                  : 24 бит
Метод сжатия                     : Без потерь / Lossy
Заголовок                        : Авторский, Гаврилов, DTS-HD 5.1
Язык                             : Russian
Default                          : Нет
Forced                           : Нет
Аудио #4
Идентификатор                    : 5
Формат                           : DTS
Формат/Информация                : Digital Theater Systems
Профиль формата                  : MA / Core
Идентификатор кодека             : A_DTS
Продолжительность                : 2 ч. 3 м.
Вид битрейта                     : Переменный
Битрейт                          : 1561 Кбит/сек / 1510 Кбит/сек
Каналы                           : 6 каналов
Расположение каналов             : Front: L C R, Side: L R, LFE
Частота                          : 48,0 КГц
Битовая глубина                  : 24 бит
Метод сжатия                     : Без потерь / Lossy
Заголовок                        : Авторский, Визгунов, DTS-HD 5.1
Язык                             : Russian
Default                          : Нет
Forced                           : Нет
Аудио #5
Идентификатор                    : 6
Формат                           : AC-3
Формат/Информация                : Audio Coding 3
Расширение режима                : CM (complete main)
Идентификатор кодека             : A_AC3
Продолжительность                : 2 ч. 3 м.
Вид битрейта                     : Постоянный
Битрейт                          : 448 Кбит/сек
Каналы                           : 6 каналов
Расположение каналов             : Front: L C R, Side: L R, LFE
Частота                          : 48,0 КГц
Битовая глубина                  : 16 бит
Метод сжатия                     : С потерями
Размер потока                    : 396 Мбайт (1%)
Заголовок                        : Авторский, Латышев, AC3 5.1, 448 kbps
Язык                             : Russian
Default                          : Нет
Forced                           : Нет
Аудио #6
Идентификатор                    : 7
Формат                           : AC-3
Формат/Информация                : Audio Coding 3
Расширение режима                : CM (complete main)
Идентификатор кодека             : A_AC3
Продолжительность                : 2 ч. 3 м.
Вид битрейта                     : Постоянный
Битрейт                          : 192 Кбит/сек
Каналы                           : 2 канала
Расположение каналов             : Front: L R
Частота                          : 48,0 КГц
Битовая глубина                  : 16 бит
Метод сжатия                     : С потерями
Размер потока                    : 170 Мбайт (0%)
Заголовок                        : Многоголосый, Премьер-Видео, AC3 2.0, 192 kbps
Язык                             : Russian
Default                          : Нет
Forced                           : Нет
Аудио #7
Идентификатор                    : 8
Формат                           : AC-3
Формат/Информация                : Audio Coding 3
Расширение режима                : CM (complete main)
Идентификатор кодека             : A_AC3
Продолжительность                : 2 ч. 3 м.
Вид битрейта                     : Постоянный
Битрейт                          : 224 Кбит/сек
Каналы                           : 2 канала
Расположение каналов             : Front: L R
Частота                          : 48,0 КГц
Битовая глубина                  : 16 бит
Метод сжатия                     : С потерями
Размер потока                    : 198 Мбайт (0%)
Заголовок                        : Многоголосый, СТС, AC3 2.0, 224 kbps
Язык                             : Russian
Default                          : Нет
Forced                           : Нет
Аудио #8
Идентификатор                    : 9
Формат                           : AC-3
Формат/Информация                : Audio Coding 3
Расширение режима                : CM (complete main)
Идентификатор кодека             : A_AC3
Продолжительность                : 2 ч. 3 м.
Вид битрейта                     : Постоянный
Битрейт                          : 448 Кбит/сек
Каналы                           : 6 каналов
Расположение каналов             : Front: L C R, Side: L R, LFE
Частота                          : 48,0 КГц
Битовая глубина                  : 16 бит
Метод сжатия                     : С потерями
Размер потока                    : 396 Мбайт (1%)
Заголовок                        : Многоголосый, НТВ, AC3 5.1, 448 kbps
Язык                             : Russian
Default                          : Нет
Forced                           : Нет
Аудио #9
Идентификатор                    : 10
Формат                           : AC-3
Формат/Информация                : Audio Coding 3
Расширение режима                : CM (complete main)
Идентификатор кодека             : A_AC3
Продолжительность                : 2 ч. 3 м.
Вид битрейта                     : Постоянный
Битрейт                          : 224 Кбит/сек
Каналы                           : 2 канала
Расположение каналов             : Front: L R
Частота                          : 48,0 КГц
Битовая глубина                  : 16 бит
Метод сжатия                     : С потерями
Размер потока                    : 198 Мбайт (0%)
Заголовок                        : Многоголосый, ОРТ, AC3 2.0, 224 kbps
Язык                             : Russian
Default                          : Нет
Forced                           : Нет
Аудио #10
Идентификатор                    : 11
Формат                           : AC-3
Формат/Информация                : Audio Coding 3
Расширение режима                : CM (complete main)
Идентификатор кодека             : A_AC3
Продолжительность                : 2 ч. 3 м.
Вид битрейта                     : Постоянный
Битрейт                          : 448 Кбит/сек
Каналы                           : 6 каналов
Расположение каналов             : Front: L C R, Side: L R, LFE
Частота                          : 48,0 КГц
Битовая глубина                  : 16 бит
Метод сжатия                     : С потерями
Размер потока                    : 396 Мбайт (1%)
Заголовок                        : Многоголосый, AC3 5.1, 448 kbps
Язык                             : Ukrainian
Default                          : Нет
Forced                           : Нет
Аудио #11
Идентификатор                    : 12
Формат                           : DTS
Формат/Информация                : Digital Theater Systems
Профиль формата                  : MA / Core
Идентификатор кодека             : A_DTS
Продолжительность                : 2 ч. 3 м.
Вид битрейта                     : Переменный
Битрейт                          : 1858 Кбит/сек / 1510 Кбит/сек
Каналы                           : 6 каналов
Расположение каналов             : Front: L C R, Side: L R, LFE
Частота                          : 48,0 КГц
Битовая глубина                  : 24 бит
Метод сжатия                     : Без потерь / Lossy
Заголовок                        : English, DTS-HD 5.1
Язык                             : English
Default                          : Нет
Forced                           : Нет
Текст #1
Идентификатор                    : 13
Формат                           : UTF-8
Идентификатор кодека             : S_TEXT/UTF8
Идентификатор кодека/Информация  : UTF-8 Plain Text
Заголовок                        : Позитив
Язык                             : Russian
Default                          : Нет
Forced                           : Нет
Текст #2
Идентификатор                    : 14
Формат                           : UTF-8
Идентификатор кодека             : S_TEXT/UTF8
Идентификатор кодека/Информация  : UTF-8 Plain Text
Язык                             : Russian
Default                          : Нет
Forced                           : Нет
Текст #3
Идентификатор                    : 15
Формат                           : UTF-8
Идентификатор кодека             : S_TEXT/UTF8
Идентификатор кодека/Информация  : UTF-8 Plain Text
Язык                             : Russian
Default                          : Нет
Forced                           : Нет
Текст #4
Идентификатор                    : 16
Формат                           : UTF-8
Идентификатор кодека             : S_TEXT/UTF8
Идентификатор кодека/Информация  : UTF-8 Plain Text
Язык                             : Russian
Default                          : Нет
Forced                           : Нет
Текст #5
Идентификатор                    : 17
Формат                           : UTF-8
Идентификатор кодека             : S_TEXT/UTF8
Идентификатор кодека/Информация  : UTF-8 Plain Text
Язык                             : English
Default                          : Нет
Forced                           : Нет
--

Миссия: невыполнима 3 / Mission: Impossible III

Миссия: невыполнима 3 / Mission: Impossible IIIГод выпуска: 2006
Страна: США, Германия, Китай
Жанр: боевик, триллер, приключения
Продолжительность: 2:05:24
Перевод: Профессиональный (многоголосый, закадровый), Профессиональный (полное дублирование), Авторский (одноголосый)
Русские субтитры: есть
Режиссер: Джей Джей Абрамс / J.J. Abrams-В ролях:
Том Круз (Ethan Hunt,), Филип Сеймур Хоффман (Owen Davian), Винг Реймз (Luther Stickell), Билли Крудап (John Musgrave), Мишель Монахэн (Julia), Джонатан Риз Мейерс (Declan Gormley), Кери Рассел (Lindsey Farris), Мэгги Кью (Zhen Lei), Саймон Пегг (Benji Dunn), Эдди Марсан (Brownway), Лоренс Фишбёрн (Theodore Brassel), Бахар Сумех (Davian's Translator)-Описание:
Суперагент Итан Хант решил расстаться с оперативной работой и заняться подготовкой курсантов. Он даже решил жениться на привлекательной, ни о чём не ведающей Джулии. Руководство ЦРУ просит его принять участие в последней операции: спасении его бывшей ученицы Линдси Феррис из лап торговца оружием Оуэна Дэвиана. Мог ли Итан предположить, что за этим заданием последует целая череда смертельно опасных миссий в Ватикане, Нью-Йорке и Шанхае?- -MPAA: - Детям до 13 лет просмотр не желателен-Качество: BDRemux
Формат: MKV
Видео кодек: H.264
Аудио кодек: DTS-HD, AC3
Видео: 1920x1080p, 23,976 fps, ~31815 kbps
Аудио 1: Russian (AC3, 5.1, 640 kbps / 48 kHz) (Дубляж)
Аудио 2: Russian (DTS-HD MA, 5.1, 3840 kbps / 48 kHz / 24-bit (DTS Core: 5.1 / 48 kHz / 1509 kbps / 24-bit)) (Двухголосый, Гланц и Королева)
Аудио 3: Russian (DTS-HD MA, 5.1, 3871 kbps / 48 kHz / 24-bit (DTS Core: 5.1 / 48 kHz / 1509 kbps / 24-bit)) (Авторский, Гаврилов)
Аудио 4: Russian (DTS-HD MA, 5.1, 3850 kbps / 48 kHz / 24-bit (DTS Core: 5.1 / 48 kHz / 1509 kbps / 24-bit)) (Многоголосый, Супербит)
Аудио 5: Russian (AC3, 5.1, 448 kbps / 48 kHz) (Многоголосый, Позитив-Мультимедиа)
Аудио 6: Russian (AC3, 5.1, 448 kbps / 48 kHz) (Многоголосый, Киномания)
Аудио 7: Russian (DTS, 5.1, 755 kbps / 48 kHz) (Авторский, Королев)
Аудио 8: Ukrainian (AC3, 5.1, 448 kbps / 48 kHz) (Многоголосый)
Аудио 9: English (DTS-HD MA, 5.1, 3853 kbps / 48 kHz / 24-bit (DTS Core: 5.1 / 48 kHz / 1509 kbps / 24-bit))
Аудио 10: English (AC3, 2.0, 192 kbps / 48 kHz) (Комментарии)
Субтитры: Русские (2 варианта), Английские-

Награды

Сатурн, 2007 год
Номинации (5):
• Лучший актер (Том Круз)
• Лучший актер второго плана (Филип Сеймур Хоффман)
• Лучший режиссер (Джей Джей Абрамс)
• Лучшие спецэффекты
• Лучший приключенческий фильм, боевик или триллер

Знаете ли вы, что...

Знаете ли Вы что....
  • Павильонные съемки проходили на студии «Paramount». В предыдущие 18 лет эти павильоны использовались для съемок эпизодов сериала «Star Trek».
  • В начале мая 2004 года поступило известие о том, что Том Круз (в качестве продюсера картины) сделал запрос на получение разрешения съемок в здании немецкого парламента. Круз хотел использовать для съемок созданный из стекла и стали 40-метровый купол Рейхстага. Тем не менее, запрос Тома был отклонен главой парламента, Вольфгангом Тирсе. Спикер ответил в следующем ключе: «Здание Рейхстага ни коим образом не может использоваться для съемок фильма, и мы отказываемся даже обсуждать в дальнейшем этот вопрос. Речь идет о защите достоинства нашего парламента».
  • Том Круз сделал предложение режиссеру Джо Карнахэну возглавить съемочный процесс после просмотра картины 2002 года «Наркобарон» (кстати, Круз являлся исполнительным продюсером данного фильма). Но Джо так и не удалось найти общий язык с Томом, в результате чего он и покинул проект всего за месяц до предполагаемого начала съемок (август 2004 года). Его уход задержал съемки фильма примерно на год, пока не была найдена кандидатура нового режиссера. Воспользовавшись заминкой, Том принял решение поработать со Стивеном Спилбергом над фильмом «Война миров», выход которого изначально был запланирован на 2006 год. Таким образом, произошла своеобразная рокировка.
  • Кери-Энн Мосс была предложена од
Other forum [Profile] [PM]
Display posts from previous:    
Reply to topic

The time now is: Today 13:53

All times are GMT + 3 Hours



You cannot post new topics in this forum
You cannot reply to topics in this forum
You cannot edit your posts in this forum
You cannot delete your posts in this forum
You cannot vote in polls in this forum
You cannot attach files in this forum
You cannot download files in this forum