Today is a free download without charge Download

Discovery. Махинаторы (Автодилеры) / Wheeler Dealers (2013) HDTVRip [720p] (Сезон 10, серии 1-12 из 12)

Reply to topic
 
Author
Message

Omen ®

Longevity: 7 years 10 months

Posts: 181087

Торрент-статистика

Post 14-May-2014 21:22

[Quote]

Discovery
Махинаторы (Автодилеры)
Wheeler Dealers
- Страна: Великобритания
Год выпуска: 2013
Жанр: Документальный, научно-познавательный, автомобилестроение
Выпущено: Великобритания, Attaboy TV LTD for Discovery Channel

Режиссер: Уоррен Грин
Ведущий: Майк Брюэр, Эд Хина
Описание:
Суть передачи такова: ведущий покупает старенькую машину-автоклассику за небольшие деньги и передает ее механику-профессионалу, чтобы тот, в свою очередь, восстановил ее до приличного состояния, уложившись при этом в определенный бюджет. Далее ведущий попытается продать авто, за сумму перекрывающую расходы на ее покупку и ремонт, и постарается остаться даже в небольшой прибыли от подобного рода "махинации", а как это у них получится, смотрите сами...
Перевод: Одноголосый закадровый, профессиональный
Продолжительность: 12x~ 00:43:00
Качество видео: HDTVRip
Видеокодек: MPEG-4 AVC/H.264
Битрейт видео: ~ 3124 kb/s
Размер кадра: 1280x720 (16:9)
Аудиокодек: AC-3, 2 ch
Битрейт аудио: 192 Кбит/сек

Эпизоды

01. Aston Martin DB7
02. Ford Escort Mk1
03. Range Rover L322 TD6
04. Porsche Boxster S
05. Morris Minor 1000 Traveller
06. TVR Cerbera
07. Lamborghini Urraco P250S
08. Chevrolet Corvette
09. Syrena 105L
10. Lotus Elise
11. Cadillac de Ville
12. Ford Popular 103E

MediaInfo (параметры всех серий одинаковы)

Код:
Общее
Уникальный идентификатор                 : 231048405222195080150218083566218182124 (0xADD24DE17EC77C159D876FACD160FDEC)
Полное имя                               : WD.s10.2013.AVC.HDTVRip.(720p)\WD.s10e01.2013.AVC.HDTVRip.(720p).mkv
Формат                                   : Matroska
Версия формата                           : Version 4 / Version 2
Размер файла                             : 1,04 Гбайт
Продолжительность                        : 43 м.
Общий поток                              : 3383 Кбит/сек
Дата кодирования                         : UTC 2013-10-19 09:48:50
Программа кодирования                    : mkvmerge v6.1.0 ('Old Devil') built on Mar  2 2013 14:32:37
Библиотека кодирования                   : libebml v1.3.0 + libmatroska v1.4.0
Видео
Идентификатор                            : 1
Формат                                   : AVC
Формат/Информация                        : Advanced Video Codec
Профиль формата                          : [url=mailto:[email protected]][email protected][/url]
Параметр CABAC формата                   : Да
Параметр ReFrames формата                : 5 кадров
Идентификатор кодека                     : V_MPEG4/ISO/AVC
Продолжительность                        : 43 м.
Битрейт                                  : 3124 Кбит/сек
Ширина                                   : 1280 пикселей
Высота                                   : 720 пикселей
Соотношение сторон                       : 16:9
Режим частоты кадров                     : Постоянный
Частота кадров                           : 25,000 кадров/сек
Цветовое пространство                    : YUV
Субдискретизация насыщенности            : 4:2:0
Битовая глубина                          : 8 бит
Тип развёртки                            : Прогрессивная
Бит/(Пиксели*Кадры)                      : 0.136
Размер потока                            : 983 Мбайт (92%)
Библиотека кодирования                   : x264 core 129 r2245 bc13772
Настройки программы                      : cabac=1 / ref=5 / deblock=1:0:0 / analyse=0x3:0x113 / me=umh / subme=8 / psy=1 / psy_rd=1.00:0.00 / mixed_ref=1 / me_range=16 / chroma_me=1 / trellis=1 / 8x8dct=1 / cqm=0 / deadzone=21,11 / fast_pskip=1 / chroma_qp_offset=-2 / threads=18 / lookahead_threads=3 / sliced_threads=0 / nr=0 / decimate=1 / interlaced=0 / bluray_compat=0 / constrained_intra=0 / bframes=3 / b_pyramid=2 / b_adapt=2 / b_bias=0 / direct=3 / weightb=1 / open_gop=0 / weightp=2 / keyint=250 / keyint_min=25 / scenecut=40 / intra_refresh=0 / rc_lookahead=50 / rc=crf / mbtree=1 / crf=21.0 / qcomp=0.60 / qpmin=0 / qpmax=69 / qpstep=4 / ip_ratio=1.40 / aq=1:1.00
Default                                  : Да
Forced                                   : Нет
Коэффициенты матрицы                     : BT.709
Аудио
Идентификатор                            : 2
Формат                                   : AC-3
Формат/Информация                        : Audio Coding 3
Расширение режима                        : CM (complete main)
Параметр Endianness формата              : Big
Идентификатор кодека                     : A_AC3
Продолжительность                        : 43 м.
Вид битрейта                             : Постоянный
Битрейт                                  : 192 Кбит/сек
Каналы                                   : 2 канала
Расположение каналов                     : Front: L R
Частота                                  : 48,0 КГц
Битовая глубина                          : 16 бит
Метод сжатия                             : С потерями
Размер потока                            : 60,4 Мбайт (6%)
Язык                                     : Russian
Default                                  : Да
Forced                                   : Нет

Интересно:

Эдд Чайна - Эд Хина (Edward John China) родился 9 мая 1971. Профессия - автомеханик. Был многократно показан в британских телевизионных шоу, включая Махинаторы и Auto Trader вместе с Майком Брюером. Получил образование в King Edward's School в Вайтли, и имеет ученую степень в области Проектирования инженерных систем от London South Bank University. В настоящее время Эдд живет и работает в городе Мейденхэд, Великобритания.
Эдд Чайна - необыкновенный чудак, который одержим автомобилями – причем, не классикой, которую можно видеть в программе «Махинаторы» / «Wheeler Dealers». Он разработал и создател множество необычных автомобилей, многие из которых входят в Книгу рекордов Гиннеса. Он основал собственную компанию Cummfy Banana Limited в марте 1999г.
Скриншоты:          
         
Other forum [Profile] [PM]
Display posts from previous:    
Reply to topic

The time now is: Today 16:14

All times are GMT + 3 Hours



You cannot post new topics in this forum
You cannot reply to topics in this forum
You cannot edit your posts in this forum
You cannot delete your posts in this forum
You cannot vote in polls in this forum
You cannot attach files in this forum
You cannot download files in this forum