Today is a free download without charge Download

Как приручить дракона 2 3Д / How to Train Your Dragon 2 3D (Дин ДеБлуа / Dean DeBlois) [2014, фэнтези, приключения, семейный, мультфильм, DCPrip-avc] Half OverUnder / Вертикальная анаморфная стереопара - Локализованный дублированный трейлер №2

Reply to topic
 
Author
Message

Omen ®

Longevity: 8 years 8 months

Posts: 181087

Торрент-статистика

Post 12-May-2014 20:09

[Quote]

Как приручить дракона 2 / How to Train Your Dragon 2Локализованный дублированный трейлер №2 в 3D- Год выпуска фильма: 2014
Страна: США
Жанр: фэнтези, приключения, семейный, комедия
Продолжительность: 00:02:25
Перевод: Профессиональный (полное дублирование)
Русские субтитры: нет-Премьера (мир): 20 мая 2014 (Каннский кинофестиваль)
Премьера (РФ): 12 июня 2014, «Двадцатый Век Фокс СНГ»
Премьера (США): 13 июня 2014, «Twentieth Century Fox Film Corporation»-Режиссер: Дин ДеБлуа / Dean DeBlois
В ролях: Джей Барушель, Америка Феррера, Джона Хилл, Кристен Уиг, ТиДжей Миллер, Кристофер Минц-Плассе, Джерард Батлер, Крэйг Фергюсон, Кит Харингтон, Кейт Бланшетт, Джимон Хонсу-Описание: Вторая часть захватывающей трилогии «Как приручить дракона» возвращает нас в фантастический мир Иккинга и его верного дракона Беззубика через пять лет после того, как эти двое сумели объединить драконов и викингов на острове Олух. В то время как Астрид, Сморкала и остальные соревнуются друг с другом в популярных на острове драконьих гонках, Иккинг и Беззубик совершают по воздуху длительные путешествия, создавая карты новых территорий и исследуя ранее не виданные миры. В ходе одного из своих путешествий они обнаруживают таинственную пещеру, в которой обитают сотни ранее невиданных диких драконов и загадочный драконий всадник. Два друга оказываются в центре битвы, призванной спасти мир людей и драконов. В этот раз Иккинг и Беззубик должны сражаться за то, во что они верят. Только сообща они смогут изменить будущее как людей, так и драконов.-Дополнительная информация:
Рип сделан с 3D DCP (Scope) в вертикальной анаморфной стереопаре 1080p и подходит для воспроизведения встроенными плеерами телевизоров. Воспроизведение проверено на телевизоре Samsung UE40D7000. При создании рипа было соблюдено соответствие отображаемых цветов у видео к цветам у DCP.
Музыка, играющая в трейлере: Danny Elfman – Leafmen, Jónsi – Go Do, 30 Seconds To Mars – Kings And Queens.-Качество: 3D DCPrip 1080p
Формат: MKV
Формат 3D: Half OverUnder / Вертикальная анаморфная стереопара
Порядок ракурсов: Левый ракурс первый
Видео кодек: H.264
Аудио кодек: AC3
Видео: MPEG4 Video (H264), 1920x1080 (2.35:1 у ракурса), 24fps, [email protected], ~16,23 Mbps, Russian
Аудио: Русский: Dolby Digital 5.1, 48 kHz, 16-bit, 640 kbps

Подробные технические данные MediaInfo

Код:
Общее
Уникальный идентификатор         : 195203790125721307454790237355148780931 (0x92DAE1E94C62CE6483583594181B2583)
Полное имя                       : C:\Как приручить дракона 2\Трейлер 3\Как приручить дракона 2 - Дублированный трейлер №2 в 3D [DCPrip 1080p HalfOU].mkv
Формат                           : Matroska
Версия формата                   : Version 4 / Version 2
Размер файла                     : 299 Мбайт
Продолжительность                : 2 м. 25 с.
Общий поток                      : 17,3 Мбит/сек
Название фильма                  : Как приручить дракона 2 - Дублированный трейлер №2 в 3D [Вертикальная анаморфная стереопара] (3D DCPrip 1080p)
Дата кодирования                 : UTC 2014-05-08 11:58:18
Программа кодирования            : mkvmerge v6.6.0 ('The Edge Of The In Between') built on Dec  1 2013 17:55:00
Библиотека кодирования           : libebml v1.3.0 + libmatroska v1.4.1
Видео
Идентификатор                    : 1
Формат                           : AVC
Формат/Информация                : Advanced Video Codec
Профиль формата                  : [email protected]
MultiView_Count                  : 2
MultiView_Layout                 : Top-Bottom (left eye first)
Параметр CABAC формата           : Да
Параметр ReFrames формата        : 4 кадра
Идентификатор кодека             : V_MPEG4/ISO/AVC
Продолжительность                : 2 м. 25 с.
Битрейт                          : 16,3 Мбит/сек
Ширина                           : 1920 пикселей
Высота                           : 1080 пикселей
Соотношение сторон               : 16:9
Частота кадров                   : 24,000 кадра/сек
Цветовое пространство            : YUV
Субдискретизация насыщенности    : 4:2:0
Битовая глубина                  : 8 бит
Тип развёртки                    : Прогрессивная
Бит/(Пиксели*Кадры)              : 0.327
Размер потока                    : 282 Мбайт (94%)
Заголовок                        : 3D DCPrip 1080p | Вертикальная анаморфная стереопара | ~16,23 Mbps
Библиотека кодирования           : x264 core 142 r2409+41 9f37d41 tMod [[email protected] X86_64]
Настройки программы              : cabac=1 / ref=4 / deblock=1:-3:-3 / analyse=0x3:0x133 / me=tesa / subme=11 / psy=1 / fade_compensate=0.00 / psy_rd=0.85:0.05 / mixed_ref=1 / me_range=32 / chroma_me=1 / trellis=2 / 8x8dct=1 / cqm=0 / deadzone=21,11 / fast_pskip=0 / chroma_qp_offset=-3 / threads=6 / lookahead_threads=1 / sliced_threads=0 / nr=0 / decimate=0 / interlaced=0 / bluray_compat=0 / constrained_intra=0 / fgo=0 / bframes=10 / b_pyramid=2 / b_adapt=2 / b_bias=0 / direct=3 / weightb=1 / open_gop=0 / weightp=2 / keyint=250 / keyint_min=24 / scenecut=40 / intra_refresh=0 / rc_lookahead=72 / rc=crf / mbtree=1 / crf=14.0000 / qcomp=0.70 / qpmin=0:0:0 / qpmax=69:69:69 / qpstep=4 / frame-packing=4 / ip_ratio=1.40 / aq=1:1.00 / aq-sensitivity=10.00 / aq-factor=1.00:1.00:1.00 / aq2=0 / aq3=0
Язык                             : Russian
Default                          : Да
Forced                           : Нет
Основные цвета                   : BT.709-5, BT.1361, IEC 61966-2-4, SMPTE RP177
Характеристики трансфера         : BT.709-5, BT.1361
Коэффициенты матрицы             : BT.709-5, BT.1361, IEC 61966-2-4 709, SMPTE RP177
Аудио
Идентификатор                    : 2
Формат                           : AC-3
Формат/Информация                : Audio Coding 3
Расширение режима                : CM (complete main)
Идентификатор кодека             : A_AC3
Продолжительность                : 2 м. 25 с.
Вид битрейта                     : Постоянный
Битрейт                          : 640 Кбит/сек
Каналы                           : 6 каналов
Расположение каналов             : Front: L C R, Side: L R, LFE
Частота                          : 48,0 КГц
Битовая глубина                  : 16 бит
Метод сжатия                     : С потерями
Размер потока                    : 11,1 Мбайт (4%)
Заголовок                        : Dolby Digital 5.1 640kbps
Язык                             : Russian
Default                          : Да
Forced                           : Нет
Other forum [Profile] [PM]
Display posts from previous:    
Reply to topic

The time now is: Today 04:59

All times are GMT + 3 Hours



You cannot post new topics in this forum
You cannot reply to topics in this forum
You cannot edit your posts in this forum
You cannot delete your posts in this forum
You cannot vote in polls in this forum
You cannot attach files in this forum
You cannot download files in this forum