Today is a free download without charge Download

Бой с тенью 3D: Последний раунд (2011) [H.264] DVDRip

Reply to topic
 
Author
Message

Varius ®

Gender:

Longevity: 10 years

Posts: 2428

Location: Hell

Торрент-статистика

Post 20-Dec-2011 15:06

[Quote]

Бой с тенью 3D: Последний раунд (2011) DVDRip
«Последний раунд решает всё»
- Оригинальное название: Бой с тенью 3D: Последний раунд
Год выпуска: 2011
Производство: Централ Партнершип (Россия)
Жанр: Боевик, драма, криминал, приключения
Перевод: Оригинальный [Русский]
Дата мировой премьеры: 24 ноября 2011
Дата российской премьеры: 17 ноября 2011, «Централ Партнершип»
Дата выхода DVD / Blu-Ray релиза: 22 декабря 2011, «Новый Диск»
Режиссер: Алексей Сидоров
Актеры: Денис Никифоров, Андрей Панин, Елена Панова, Бату Хасиков, Михаил Горевой, Дмитрий Шевченко, Ольга Дибцева, Софья Мицкевич, Сергей Рябых, Шакрит Ямнарм
Описание фильма:
Боксер-чемпион Артем Колчин достиг всех мыслимых вершин и стал национальным героем. На ринг он больше не выходит, предпочитая тренерскую работу и бурную светскую жизнь с постоянным мельканием на ТВ, тусовками и интрижками. А дома его по утрам встречают дочка и жена Вика, которая больше не узнает в нем того Артема, которого она когда-то полюбила… Внешне благополучному существованию Колчина приходит конец, когда его подопечного чуть не убивает в бою знаменитый Куэрте. Артем подозревает, что тот использует некую запрещенную технику. За доказательствами ему приходится отправиться в Гонконг, где его ждет старый знакомый Вагит Валиев: он знает о Куэрте то, чего не знает больше ни один человек. Чтобы победить, Артему придется снова выйти на ринг.
Продолжительность: 02:01:26
Качество видео: DVDRip
Видеокодек: MPEG4_AVC / H.264
Битрейт видео: ~1960 kbps, Бит/(Пиксели*Кадры): 0.189
Размер кадра: [email protected]
Аудиокодек: AC3 5.1
Битрейт аудио: 448 kbps

MediaInfo...

Полное имя : D:\Бой.с.тенью.3D.Последний.раунд.2011.H.264.DVDRip.mkv
Формат : Matroska
Версия формата : Version 2
Размер файла : 2,04 Гбайт
Продолжительность : 2 ч. 1 м.
Общий поток : 2408 Кбит/сек
Название фильма : Бой с тенью 3D: Последний раунд - иZVeRG
Дата кодирования : UTC 2011-12-20 05:05:29
Программа кодирования : mkvmerge v5.0.1 ('Es ist Sommer') built on Oct 9 2011 11:55:43
Библиотека кодирования : libebml v1.2.2 + libmatroska v1.3.0
Видео
Идентификатор : 1
Формат : AVC
Формат/Информация : Advanced Video Codec
Профиль формата : [url=mailto:[email protected]][email protected][/url]
Параметр CABAC формата : Да
Параметр ReFrames формата : 16 кадров
Режим смешивания : Header stripping
Идентификатор кодека : V_MPEG4/ISO/AVC
Продолжительность : 2 ч. 1 м.
Битрейт : 1960 Кбит/сек
Ширина : 720 пикс.
Высота : 576 пикс.
Соотношение сторон : 16:9
Частота кадров : 25,000 кадр/сек
Стандарт вещания : PAL
Цветовое пространство : YUV
Подвыборка цветности : 4:2:0
Битовая глубина : 8 бит
Тип развёртки : Прогрессивная
Бит/(Пиксели*Кадры) : 0.189
Размер потока : 1,62 Гбайт (79%)
Библиотека кодирования : x264 core 119 r2106 07efeb4
Настройки программы : cabac=1 / ref=16 / deblock=1:-2:-1 / analyse=0x3:0x113 / me=umh / subme=9 / psy=1 / psy_rd=1.05:0.15 / mixed_ref=1 / me_range=32 / chroma_me=1 / trellis=2 / 8x8dct=1 / cqm=0 / deadzone=21,11 / fast_pskip=1 / chroma_qp_offset=-3 / threads=12 / sliced_threads=0 / nr=0 / decimate=1 / interlaced=0 / bluray_compat=0 / constrained_intra=0 / bframes=6 / b_pyramid=2 / b_adapt=2 / b_bias=0 / direct=3 / weightb=1 / open_gop=0 / weightp=2 / keyint=250 / keyint_min=25 / scenecut=40 / intra_refresh=0 / rc_lookahead=80 / rc=2pass / mbtree=1 / bitrate=1960 / ratetol=1.0 / qcomp=0.60 / qpmin=0 / qpmax=69 / qpstep=4 / cplxblur=20.0 / qblur=0.5 / ip_ratio=1.40 / aq=2:0.70
Аудио
Идентификатор : 2
Формат : AC-3
Формат/Информация : Audio Coding 3
Расширение режима : CM (complete main)
Режим смешивания : Header stripping
Идентификатор кодека : A_AC3
Продолжительность : 2 ч. 1 м.
Вид битрейта : Постоянный
Битрейт : 448 Кбит/сек
Каналы : 6 каналов
Расположение каналов : Front: L C R, Side: L R, LFE
Частота : 48,0 КГц
Битовая глубина : 16 бит
Метод сжатия : С потерями
Размер потока : 389 Мбайт (19%)
Скриншоты:
       
       
Время раздачи: 24/7 (до 10 скачавших)

_________________

Создавая "Новую папку", не считайте себя Создателем - это право Вам дано Админом


Other forum [Profile] [PM]
Display posts from previous:    
Reply to topic

The time now is: Today 01:01

All times are GMT + 3 Hours



You cannot post new topics in this forum
You cannot reply to topics in this forum
You cannot edit your posts in this forum
You cannot delete your posts in this forum
You cannot vote in polls in this forum
You cannot attach files in this forum
You cannot download files in this forum