Today is a free download without charge Download

Филипп Траум (Игорь Масленников)[1989.,Приключения] DVDRip [H.264] (2 серии)

Reply to topic
 
Author
Message

sashau ®

Gender:

Longevity: 9 years 6 months

Posts: 3497

Торрент-статистика

Post 10-May-2014 08:01

[Quote]

Филипп Траум - Год выпуска: 1989
Жанр: Приключения
Описание фильма:
Средневековая Европа, во времена инквизиции. Конец XVI века. В Австрии, Бургенланд, предместье Вены есть небольшой городишко Эсельдорф (дословно «деревня ослов» (сочетание слов нем. esel и нем. dorf))(Не существующий в реальности), находящийся под практически полным подчинением председателя духовного трибунала, посещает странный молодой человек, представившийся встретившим его мальчишкам Филиппом Траумом — путешественником и магом.
Позже Траум сознается в том, что он Сатана (либо приходится племянником Сатане). Мальчики обращаются к нему с просьбами, приходят в восторг от каждого нового трюка таинственного незнакомца и, не опасаясь последствий, просят того предсказывать их судьбу. Однако предсказания не радужны, последствия не такие, как им хотелось. Мальчики в очередной раз умоляют Траума переделать будущее…
Режиссер: Игорь Масленников
Актеры: Габриель Воробьев, Филипп Козлов, Дима Суворов, Дима Мамонтов, Ия Парулава, Евгений Весник, Алексей Зубарев, Юри Ярвет, Константин Воробьев, Елена Сафонова, Петр Меркурьев, Анатолий Сливников

Продолжительность: 02:09:06
Качество видео: DVDRip
Видео: AVC, 704x560 (4:3), 25.000 fps, 2 500 Kbps (0.254 bit/pixel)
Аудио: AC-3, 48.0 KHz, 2 ch, 192 Kbps, CBR

МедиаИнфо:

Видео
Идентификатор : 1
Формат : AVC
Формат/Информация : Advanced Video Codec
Профиль формата :[email protected]
Параметр CABAC формата : Да
Параметр ReFrames формата : 2 кадра
Идентификатор кодека : V_MPEG4/ISO/AVC
Продолжительность : 1 ч. 3 м.
Битрейт : 2500 Кбит/сек
Ширина : 704 пикселя
Высота : 560 пикселей
Соотношение сторон : 4:3
Соотношение сторон в оригинале : 4:3
Режим частоты кадров : Постоянный
Частота кадров : 25,000 кадров/сек
Цветовое пространство : YUV
Субдискретизация насыщенности : 4:2:0
Битовая глубина : 8 бит
Тип развёртки : Прогрессивная
Бит/(Пиксели*Кадры) : 0.254
Размер потока : 1,10 Гбайт (91%)
Библиотека кодирования : x264 core 130 r2273
Настройки программы : cabac=1 / ref=2 / deblock=1:0:0 / analyse=0x1:0x131 / me=hex / subme=7 / psy=1 / psy_rd=1.00:0.00 / mixed_ref=0 / me_range=16 / chroma_me=1 / trellis=1 / 8x8dct=0 / cqm=0 / deadzone=21,11 / fast_pskip=1 / chroma_qp_offset=-2 / threads=6 / lookahead_threads=1 / sliced_threads=0 / nr=0 / decimate=1 / interlaced=0 / bluray_compat=0 / constrained_intra=0 / bframes=3 / b_pyramid=0 / b_adapt=1 / b_bias=0 / direct=3 / weightb=1 / open_gop=0 / weightp=2 / keyint=250 / keyint_min=25 / scenecut=40 / intra_refresh=0 / rc_lookahead=40 / rc=2pass / mbtree=1 / bitrate=2500 / ratetol=1.0 / qcomp=0.60 / qpmin=10 / qpmax=69 / qpstep=4 / cplxblur=20.0 / qblur=0.5 / vbv_maxrate=24000 / vbv_bufsize=24000 / nal_hrd=none / ip_ratio=1.40 / aq=1:1.00
Default : Да
Forced : Нет
Аудио
Идентификатор : 2
Формат : AC-3
Формат/Информация : Audio Coding 3
Расширение режима : CM (complete main)
Параметр Endianness формата : Big
Идентификатор кодека : A_AC3
Продолжительность : 1 ч. 3 м.
Вид битрейта : Постоянный
Битрейт : 192 Кбит/сек
Каналы : 2 канала
Расположение каналов : Front: L R
Частота : 48,0 КГц
Битовая глубина : 16 бит
Метод сжатия : С потерями
Размер потока : 87,4 Мбайт (7%)
Default : Да
Forced : Нет
Скриншоты:
         
         
Other forum [Profile] [PM]
Display posts from previous:    
Reply to topic

The time now is: Today 23:47

All times are GMT + 3 Hours



You cannot post new topics in this forum
You cannot reply to topics in this forum
You cannot edit your posts in this forum
You cannot delete your posts in this forum
You cannot vote in polls in this forum
You cannot attach files in this forum
You cannot download files in this forum