Today is a free download without charge Download

Стрелок / Kütt / The Rifleman (Рейн Раамат / Rein Raamat) [1976, анимация, VHSRip]

Reply to topic
 
Author
Message

Omen ®

Longevity: 7 years 11 months

Posts: 181087

Торрент-статистика

Post 08-May-2014 14:56

[Quote]

Стрелок / Kütt / The Rifleman
Страна: СССР (Эстонская республика)
Жанр: анимация
Продолжительность: 00:07:24
Год выпуска: 1976
Перевод: Не требуется
Русские субтитры: нет
Режиссёр: Рейн Раамат / Rein Raamat
Описание: Во время охоты на кита стрелок китобойного судна случайно падает за борт. Но в итоге кит, которого он только что ранил, спасает ему жизнь.
Качество: VHSRip
Формат: AVI
Видео: 1550 kbps, 720х544 (4:3), 25.000 fps, MPEG-4 Visual (XviD)
Аудио: 128 kbps, 48.0 kHz, 2 channels, MPEG Audio (MP3)
Субтитры: отсутствуют

Подробные технические данные

GeneralComplete name : Kütt (1976).aviFormat : AVIFormat/Info : Audio Video InterleaveFile size : 89.4 MiBDuration : 7mn 24sOverall bit rate : 1 688 KbpsWriting application : VirtualDubMod 1.5.4.1 (build 2178/release)Writing library : VirtualDubMod build 2178/release
VideoID : 0Format : MPEG-4 VisualFormat profile : Advanced [email protected] settings, BVOP : 1Format settings, QPel : NoFormat settings, GMC : No warppointsFormat settings, Matrix : CustomCodec ID : XVIDCodec ID/Hint : XviDDuration : 7mn 24sBit rate : 1 550 KbpsWidth : 720 pixelsHeight : 544 pixelsDisplay aspect ratio : 4:3Frame rate : 25.000 fpsColor space : YUVChroma subsampling : 4:2:0Bit depth : 8 bitsScan type : ProgressiveCompression mode : LossyBits/(Pixel*Frame) : 0.158Stream size : 82.1 MiB (92%)Writing library : XviD 1.0.0 (UTC 2004-05-09)
AudioID : 1Format : MPEG AudioFormat version : Version 1Format profile : Layer 3Mode : Joint stereoMode extension : MS StereoCodec ID : 55Codec ID/Hint : MP3Duration : 7mn 24sBit rate mode : ConstantBit rate : 128 KbpsChannel(s) : 2 channelsSampling rate : 48.0 KHzCompression mode : LossyStream size : 6.78 MiB (8%)Alignment : Aligned on interleavesInterleave, duration : 40 ms (1.00 video frame)Interleave, preload duration : 504 ms

Скриншоты

Other forum [Profile] [PM]
Similar theme
Forum Topic Author Torrent Replies Last Post
./templates/default/images/folder_dl.gif Историческая литература Семен Федосеев, Алексей Ардашев | Учебник выживания снайпера. Стреляй редко, но метко! (2014) [FB2] Omen
1 | 0

0 | 1649

10

2014-09-01 11:46
Omen Latest
Display posts from previous:    
Reply to topic

The time now is: Today 03:02

All times are GMT + 3 Hours



You cannot post new topics in this forum
You cannot reply to topics in this forum
You cannot edit your posts in this forum
You cannot delete your posts in this forum
You cannot vote in polls in this forum
You cannot attach files in this forum
You cannot download files in this forum