Today is a free download without charge Download

Не сдавайся / Restless (Гас Ван Сент) [2011 г., драма, BDRip1080p]

Reply to topic
 
Author
Message

sassad ®

Gender:

Longevity: 10 years

Posts: 1214

Location: Галич

Торрент-статистика

Post 18-Dec-2011 23:38

[Quote]

Не сдавайся / Restless-- Год выпуска: 2011
Страна: США
Жанр: драма
Продолжительность: 91 мин. / 01:31
Перевод: Профессиональный (многоголосый закадровый) [лицензия]
Режиссер: Гас Ван Сент
Продюссер: Брайан Грейзер, Брайс Даллас Ховард, Рон Ховард
Сценарий: Джейсон Лью
Бюджет: $8 000 000
Премьера в мире: 6 апреля 2011
PG-13 - Детям до 13 лет просмотр не желателен
6.60 (1 512)

В ролях: Генри Ли Хоппер, Миа Васиковска, Рё Касэ, Скайлер Фиск, Люсия Струс, Джейн Адамс, Пол Парсон, Томас Лодердейл, Кристофер Д. Хардер, Морган Ли-Описание: Энок, переживший клиническую смерть и потерявший в автокатастрофе родителей, знакомится на похоронах с Аннабель, и вскоре между молодыми людьми завязываются романтические отношения. Позднее оказывается, что Аннабель смертельно больна и именно поэтому она ходит на похороны чужих людей, на одних из которых и встретила Энока. Юноша решает помочь любимой подготовиться к неизбежному.-Качество: BDRip1080p
Формат: MKV
Видео кодек: H.26x
Аудио кодек: AC3
Видео: MPEG-4 AVC, 12.2 Мбит/с, 1920x1036, 23.976 кадр/с
Аудио: Русский (AC3, 6 ch, 384 Кбит/с), английский (DTS, 6 ch, 1510 Кбит/с)


--

Инфо

Код:
F:\Ne.sdavaysya.2011.x264.BDRip.1080p.IRONCLUB.mkv
Format                                   : Matroska
Format version                           : Version 2
File size                                : 9.00 GiB
Duration                                 : 1h 31mn
Overall bit rate                         : 14.1 Mbps
Movie name                               : Restless (2011) - IRONCLUB
Encoded date                             : UTC 2011-12-18 17:31:30
Writing application                      : mkvmerge v4.9.1 ('Ich will') сборка от Jul 11 2011 23:53:15
Writing library                          : libebml v1.2.1 + libmatroska v1.1.1
Video
ID                                       : 1
Format                                   : AVC
Format/Info                              : Advanced Video Codec
Format profile                           : [email protected]
Format settings, CABAC                   : Yes
Format settings, ReFrames                : 4 frames
Codec ID                                 : V_MPEG4/ISO/AVC
Duration                                 : 1h 31mn
Bit rate                                 : 12.2 Mbps
Width                                    : 1 920 pixels
Height                                   : 1 036 pixels
Display aspect ratio                     : 1.853
Frame rate                               : 23.976 fps
Color space                              : YUV
Chroma subsampling                       : 4:2:0
Bit depth                                : 8 bits
Scan type                                : Progressive
Bits/(Pixel*Frame)                       : 0.257
Stream size                              : 7.61 GiB (85%)
Title                                    : Restless (2011) - IRONCLUB
Writing library                          : x264 core 120 r2120 0c7dab9
Encoding settings                        : cabac=1 / ref=4 / deblock=1:-2:-2 / analyse=0x3:0x113 / me=umh / subme=10 / psy=1 / psy_rd=1.20:0.20 / mixed_ref=1 / me_range=32 / chroma_me=1 / trellis=2 / 8x8dct=1 / cqm=0 / deadzone=21,11 / fast_pskip=0 / chroma_qp_offset=-3 / threads=9 / sliced_threads=0 / nr=0 / decimate=0 / interlaced=0 / bluray_compat=0 / constrained_intra=0 / bframes=5 / b_pyramid=2 / b_adapt=2 / b_bias=0 / direct=3 / weightb=1 / open_gop=0 / weightp=2 / keyint=250 / keyint_min=2 / scenecut=40 / intra_refresh=0 / rc_lookahead=72 / rc=2pass / mbtree=1 / bitrate=12244 / ratetol=1.0 / qcomp=0.60 / qpmin=10 / qpmax=51 / qpstep=4 / cplxblur=20.0 / qblur=0.5 / vbv_maxrate=38000 / vbv_bufsize=38000 / nal_hrd=none / ip_ratio=1.40 / aq=1:1.00
Language                                 : English
Default                                  : Yes
Forced                                   : Yes
Audio #1
ID                                       : 2
Format                                   : AC-3
Format/Info                              : Audio Coding 3
Mode extension                           : CM (complete main)
Codec ID                                 : A_AC3
Duration                                 : 1h 31mn
Bit rate mode                            : Constant
Bit rate                                 : 384 Kbps
Channel(s)                               : 6 channels
Channel positions                        : Front: L C R, Side: L R, LFE
Sampling rate                            : 48.0 KHz
Bit depth                                : 16 bits
Compression mode                         : Lossy
Stream size                              : 250 MiB (3%)
Title                                    : DD 5.1 @ 384 kbps, MVO R5
Language                                 : Russian
Default                                  : Yes
Forced                                   : Yes
Audio #2
ID                                       : 3
Format                                   : DTS
Format/Info                              : Digital Theater Systems
Codec ID                                 : A_DTS
Duration                                 : 1h 31mn
Bit rate mode                            : Constant
Bit rate                                 : 1 510 Kbps
Channel(s)                               : 6 channels
Channel positions                        : Front: L C R, Side: L R, LFE
Sampling rate                            : 48.0 KHz
Bit depth                                : 16 bits
Compression mode                         : Lossy
Stream size                              : 983 MiB (11%)
Title                                    : DTS 5.1 @ 1536 kbps
Language                                 : English
Default                                  : No
Forced                                   : No
--

Скриншоты

       
-

_________________
Other forum [Profile] [PM]
Display posts from previous:    
Reply to topic

The time now is: Today 23:00

All times are GMT + 3 Hours



You cannot post new topics in this forum
You cannot reply to topics in this forum
You cannot edit your posts in this forum
You cannot delete your posts in this forum
You cannot vote in polls in this forum
You cannot attach files in this forum
You cannot download files in this forum