Today is a free download without charge Download

Сновидения поздней осени (Татьяна Житковская)[1981.,Мультфильм для взрослых,Кукольный] TVRip

Reply to topic
 
Author
Message

sashau ®

Gender:

Longevity: 8 years 10 months

Posts: 3497

Торрент-статистика

Post 04-May-2014 07:00

[Quote]

Сновидения поздней осени - Год выпуска: 1981
Выпущено: Беларусьфильм
Жанр: Кукольный
Описание:
Мультипликационный фильм для взрослых о старике, прожившем трудную жизнь и оставшимся одиноким.
Режиссер: Татьяна Житковская
Продолжительность: 00:17:30
Качество видео: TVRip
Видео: XviD, 2093 Кбит/с, 720x544
Аудио: MP3, 2 ch, 128 Кбит/с

МедиаИнфо:

Видео
Идентификатор : 0
Формат : MPEG-4 Visual
Профиль формата : Advanced [email protected]
Параметр BVOP формата : 1
Параметр QPel формата : Нет
Параметр GMC формата : Без точки перехода
Параметр матрицы формата : Выборочная
Идентификатор кодека : XVID
Идентификатор кодека/Подсказка : XviD
Продолжительность : 17 м.
Битрейт : 2094 Кбит/сек
Ширина : 720 пикселей
Высота : 544 пикселя
Соотношение сторон : 4:3
Частота кадров : 25,000 кадров/сек
Цветовое пространство : YUV
Субдискретизация насыщенности : 4:2:0
Битовая глубина : 8 бит
Тип развёртки : Прогрессивная
Метод сжатия : С потерями
Бит/(Пиксели*Кадры) : 0.214
Размер потока : 262 Мбайт (94%)
Библиотека кодирования : XviD 1.0.0 (UTC 2004-05-09)
Аудио
Идентификатор : 1
Формат : MPEG Audio
Версия формата : Version 1
Профиль формата : Layer 3
Режим : Joint stereo
Расширение режима : MS Stereo
Идентификатор кодека : 55
Идентификатор кодека/Подсказка : MP3
Продолжительность : 17 м.
Вид битрейта : Постоянный
Битрейт : 128 Кбит/сек
Каналы : 2 канала
Частота : 48,0 КГц
Метод сжатия : С потерями
Размер потока : 16,0 Мбайт (6%)
Выравнивание : Соединение по промежуткам
Продолжительность промежутка : 40 мс. (1,00 видеокадр)
Время предзагрузки промежутка : 504 мс.
Скриншоты:
       
     
Other forum [Profile] [PM]
Display posts from previous:    
Reply to topic

The time now is: Today 14:21

All times are GMT + 3 Hours



You cannot post new topics in this forum
You cannot reply to topics in this forum
You cannot edit your posts in this forum
You cannot delete your posts in this forum
You cannot vote in polls in this forum
You cannot attach files in this forum
You cannot download files in this forum