Today is a free download without charge Download

В полдень на пристани / Серии: 1-4 из 4 (Юсуп Разыков) [2011, мелодрама, SATRip]

Reply to topic
 
Author
Message

Relizer ®

Gender:

Longevity: 9 years

Posts: 233

Торрент-статистика

Post 18-Dec-2011 12:39

[Quote]

В полдень на пристани
Год выпуска: 2011
Производство: Студия "Фабула" при участии студии "Тритона"
Жанр: мелодрама
Продолжительность: ~ 0:43:00 серия
Субтитры: нет
Режиссёр: Юсуп Разыков
В ролях: Полина Сыркина, Константин Стрельников, Сергей Комаров, Анна Казючиц, Елена Дубровская
Описание: Родители Даши погибли, когда она была еще ребенком, но девочка еще долго ждала их у ограды дома – бабушка не решалась рассказать ей правду.
Проходят годы, Даша встречает свою любовь и будущее видится счастливым и безоблачным. Но в ее жизнь снова возвращается ожидание, неопределенность и страх потерять самого близкого человека. Ее избранник, военный летчик Костя, вынужден уехать на несколько дней. Он назначает девушке встречу в полдень на пристани, но не приходит. По дороге банда хулиганов выбрасывает его на ходу из поезда. Но Даша не теряет надежды и вновь и вновь приходит в ожидании любимого в полдень на пристань.-Качество: SATRip
Формат: AVI (совместим с бытовыми плеерами)
Видео кодек: XviD
Аудио кодек: MP3
Видео: XviD, 704x400 (16:9), 25.000 fps, 1 466 Kbps (0.208 bit/pixel)
Аудио: MP3, 48.0 KHz, 2 ch, 128 Kbps, CBR--

MediaInfo

ОбщееПолное имя : H:\Раздачи\В полдень на пристани\В полдень на пристани.01.aviФормат : AVIФормат/Информация : Audio Video InterleaveРазмер файла : 499 МбайтПродолжительность : 43 м.Общий поток : 1603 Кбит/секПрограмма кодирования : VirtualDubMod 1.5.10.3 | www.virtualdub-fr.org || (build 2550/release)Библиотека кодирования : VirtualDubMod build 2550/release
ВидеоИдентификатор : 0Формат : MPEG-4 VisualПрофиль формата : Advanced [email protected]Параметр BVOP формата : 1Параметр QPel формата : НетПараметр GMC формата : Без точки переходаПараметр матрицы формата : Default (MPEG)Идентификатор кодека : XVIDИдентификатор кодека/Подсказка : XviDПродолжительность : 43 м.Битрейт : 1466 Кбит/секШирина : 704 пикселяВысота : 400 пикселейСоотношение сторон : 16:9Частота кадров : 25,000 кадров/секЦветовое пространство : YUVСубдискретизация насыщенности : 4:2:0Битовая глубина : 8 битТип развёртки : ПрогрессивнаяМетод сжатия : С потерямиБит/(Пиксели*Кадры) : 0.208Размер потока : 456 Мбайт (91%)Библиотека кодирования : XviD 64
АудиоИдентификатор : 1Формат : MPEG AudioВерсия формата : Version 1Профиль формата : Layer 3Идентификатор кодека : 55Идентификатор кодека/Подсказка : MP3Продолжительность : 43 м.Вид битрейта : ПостоянныйБитрейт : 128 Кбит/секКаналы : 2 каналаЧастота : 48,0 КГцМетод сжатия : С потерямиРазмер потока : 39,8 Мбайт (8%)Выравнивание : Соединение по промежуткамПродолжительность промежутка : 40 мс. (1,00 видеокадр)Время предзагрузки промежутка : 504 мс.Библиотека кодирования : LAME3.98rНастройки программы : -m s -V 4 -q 2 -lowpass 17 -b 128

Скриншоты

     
--

_________________
Хк Локомотив #52# Макс ты был моим замечательным другом, пусть земля будет тебе пухом.. #52#07/09/2011- Обращаться с девочкой надо аккуратно, как с ёлочкой...Вырубить и отнести домой:)
Other forum [Profile] [PM]
Display posts from previous:    
Reply to topic

The time now is: Today 10:22

All times are GMT + 3 Hours



You cannot post new topics in this forum
You cannot reply to topics in this forum
You cannot edit your posts in this forum
You cannot delete your posts in this forum
You cannot vote in polls in this forum
You cannot attach files in this forum
You cannot download files in this forum