Today is a free download without charge Download

Мир будущего / Futureworld (Ричард Т. Хеффрон / Richard T. Heffron) [1976, США, фантастика, триллер,, BDRip 720p]

Reply to topic
 
Author
Message

Delia ®

Gender:

Longevity: 10 years

Posts: 1821

Торрент-статистика

Post 17-Dec-2011 17:31

[Quote]

Мир будущегоFutureworld Страна: США
Студия: American International Pictures (AIP)
Жанр: фантастика, триллер,
Год выпуска: 1976
Продолжительность: 01:47:30
Перевод: Профессиональный (двухголосый закадровый) НТВ+
Cубтитры: нет
Оригинальная аудиодорожка: английский
Режиссер: Ричард Т. Хеффрон / Richard T. Heffron
В ролях: Питер Фонда, Блайт Дэннер, Артур Хилл, Юл Бриннер, Джон П. Райан, Стюарт Марголин, Аллен Людден, Роберт Корнтуэйт, Анджела Грин, Даррел Ларсон, Нэнси Белл, Берт Конрой, Дороти Конрад, Джон Фудзиока, Дана Ли.
Описание: Технологический триллер о курортном отеле, обслуживающий персонал которого состоит из роботов. Фонда в роли журналиста, ведущего расследование о владельце отеля. Владелец отеля замыслил править всем миром.
В городе роботов «Делос», в котором недавно произошло «восстание машин», восстановлен порядок, и журналисты приглашены лично засвидетельствовать, что отныне все спокойно в мире Запада. В действительности два журналиста, Чак Браунинг и Трейси Баллард, раскрывают секрет города: гости города, среди которых немало влиятельных политиков и крупных бизнесменов, похищены и заменены роботами, запрограммированными, чтобы спасти человечество от разрушительного безумия человека. К сожалению, они сами далеки от совершенства. Двое журналистов уничтожают своих двойников и спасаются…
Один из первых фильмов, использовавших компьютерную анимацию. Юл Бриннер показывается на мгновение только в одном эпизоде. Это последний его фильм.

Тип релиза: BDRip 720p ( исходник BluRay CHDBits )
Контейнер: MKV
Видео: МPEG-4 AVC, 1280х 720(16:9), 23,976fps, ~ 5649 Кбит/сек , [email protected]
Аудио: Russian:48 kHz, AC3, 2.0 (L,R,l) ~192.00 kbps avg
Аудио 2: English:48 kHz, DTS, 3/2 (L,C,R,l,r) + LFE ch~ 755 kbps avg
Аудио 3: German:48 kHz, DTS, 3/2 (L,C,R,l,r) + LFE ch~ 755 kbps avg

х264:

Код:
x264 [info]: frame I:1142  Avg QP:15.59  size:128345
x264 [info]: frame P:27462 Avg QP:18.93  size: 48730
x264 [info]: frame B:126029 Avg QP:20.23  size: 25118

MediaInfo

Код:
Общее
Уникальный идентификатор         : 235377235257698925189252583007520136201 (0xB11401ADFB1D7FF1B6CD1A00D67D9C09)
Полное имя                       : E:\торрент\Futureworld.1976BDRip 720p.mkv
Формат                           : Matroska
Размер файла                     : 5,63 Гбайт
Продолжительность                : 1 ч. 47 м.
Общий поток                      : 7500 Кбит/сек
Дата кодирования                 : UTC 2011-12-17 07:18:02
Программа кодирования            : mkvmerge v5.1.0 ('And so it goes') built on Nov 28 2011 23:58:28
Библиотека кодирования           : libebml v1.2.3 + libmatroska v1.3.0
Видео
Идентификатор                    : 1
Формат                           : AVC
Формат/Информация                : Advanced Video Codec
Профиль формата                  : [email protected]
Параметр CABAC формата           : Да
Параметр ReFrames формата        : 9 кадры
Идентификатор кодека             : V_MPEG4/ISO/AVC
Продолжительность                : 1 ч. 47 м.
Битрейт                          : 5649 Кбит/сек
Ширина                           : 1280 пикс.
Высота                           : 720 пикс.
Соотношение сторон               : 16:9
Частота кадров                   : 23,976 кадр/сек
Цветовое пространство            : YUV
Подвыборка цветности             : 4:2:0
Битовая глубина                  : 8 бит
Тип развёртки                    : Прогрессивная
Бит/(Пиксели*Кадры)              : 0.256
Размер потока                    : 4,24 Гбайт (75%)
Библиотека кодирования           : x264 core 120 r2120 0c7dab9
Настройки программы              : cabac=1 / ref=9 / deblock=1:-3:-3 / analyse=0x3:0x133 / me=esa / subme=10 / psy=1 / psy_rd=0.90:0.25 / mixed_ref=1 / me_range=32 / chroma_me=1 / trellis=2 / 8x8dct=1 / cqm=0 / deadzone=21,11 / fast_pskip=0 / chroma_qp_offset=-4 / threads=6 / sliced_threads=0 / nr=0 / decimate=0 / interlaced=0 / bluray_compat=0 / constrained_intra=0 / bframes=9 / b_pyramid=2 / b_adapt=2 / b_bias=0 / direct=1 / weightb=1 / open_gop=0 / weightp=2 / keyint=240 / keyint_min=23 / scenecut=40 / intra_refresh=0 / rc_lookahead=60 / rc=crf / mbtree=1 / crf=18.0 / qcomp=0.70 / qpmin=10 / qpmax=51 / qpstep=4 / vbv_maxrate=50000 / vbv_bufsize=62500 / crf_max=0.0 / nal_hrd=none / ip_ratio=1.40 / aq=2:0.90
Язык                             : English
Аудио #1
Идентификатор                    : 2
Формат                           : AC-3
Формат/Информация                : Audio Coding 3
Расширение режима                : CM (complete main)
Идентификатор кодека             : A_AC3
Продолжительность                : 1 ч. 47 м.
Вид битрейта                     : Постоянный
Битрейт                          : 192 Кбит/сек
Канал(ы)                         : 2 канала(ов)
Расположение каналов             : Front: L R
Частота                          : 48,0 КГц
Битовая глубина                  : 16 бит
Метод сжатия                     : С потерями
Размер потока                    : 148 Мбайт (3%)
Язык                             : Russian
Аудио #2
Идентификатор                    : 3
Формат                           : DTS
Формат/Информация                : Digital Theater Systems
Идентификатор кодека             : A_DTS
Продолжительность                : 1 ч. 47 м.
Вид битрейта                     : Постоянный
Битрейт                          : 755 Кбит/сек
Канал(ы)                         : 2 канала(ов)
Расположение каналов             : Front: L R
Частота                          : 48,0 КГц
Битовая глубина                  : 16 бит
Метод сжатия                     : С потерями
Размер потока                    : 580 Мбайт (10%)
Язык                             : English
Аудио #3
Идентификатор                    : 4
Формат                           : DTS
Формат/Информация                : Digital Theater Systems
Идентификатор кодека             : A_DTS
Продолжительность                : 1 ч. 47 м.
Вид битрейта                     : Постоянный
Битрейт                          : 755 Кбит/сек
Канал(ы)                         : 2 канала(ов)
Расположение каналов             : Front: L R
Частота                          : 48,0 КГц
Битовая глубина                  : 16 бит
Метод сжатия                     : С потерями
Размер потока                    : 580 Мбайт (10%)
Язык                             : German
Меню
00:00:00.000                     : en:Chapter 01
00:03:36.925                     : en:Chapter 02
00:11:08.834                     : en:Chapter 03
00:16:04.838                     : en:Chapter 04
00:22:24.426                     : en:Chapter 05
00:27:41.493                     : en:Chapter 06
00:32:29.697                     : en:Chapter 07
00:38:04.740                     : en:Chapter 08
00:43:03.414                     : en:Chapter 09
00:50:23.061                     : en:Chapter 10
00:58:22.874                     : en:Chapter 11
01:04:49.385                     : en:Chapter 12
01:12:36.852                     : en:Chapter 13
01:21:20.917                     : en:Chapter 14
01:31:40.786                     : en:Chapter 15
01:44:45.821                     : en:Chapter 16
01:47:28.984                     : en:Chapter 17

Скриншоты

         
         

_________________
Человек – это канат, натянутый между животным и сверхчеловеком, – канат над пропастью.
В человеке ценно то, что он мост, а не цель. Фридрих Ницше
Other forum [Profile] [PM]
Display posts from previous:    
Reply to topic

The time now is: Today 11:54

All times are GMT + 3 Hours



You cannot post new topics in this forum
You cannot reply to topics in this forum
You cannot edit your posts in this forum
You cannot delete your posts in this forum
You cannot vote in polls in this forum
You cannot attach files in this forum
You cannot download files in this forum