Today is a free download without charge Download

Новый год отменяется! (Вадим Шмелев) [2004, Комедия, DVD5]

Reply to topic
 
Author
Message

Koralina ®

Longevity: 10 years

Posts: 994

Location: Lithuania

Торрент-статистика

Post 17-Dec-2011 17:15

[Quote]

Новый год отменяется! Русское название: Новый год отменяется!
Оригинальное название: Novyy god otmenyaetsya!
Год выхода: 2004
Режиссер: Вадим Шмелев
В ролях: Павел Майков, Павел Майков, Татьяна Арнтгольц, Татьяна Арнтгольц, Дарья Белоусова, Дарья Белоусова, Артем Мазунов, Артем Мазунов, Александр Числов, Александр Числов, Виталий Альшанский, Виталий Альшанский, Леонид Анисимов, Леонид Анисимов, Сергей Демченко, Сергей Демченко, Марина Пивоварова, Марина Пивоварова, А. Суворов, А. Суворо
Страна производства: Россия
Продолжительность: 85 мин. / 01:25
Продюсер: Сергей Кучков
Сценарий: Сергей Сергеев
Жанр: комедия
Описание: В канун новогодних праздников две девушки Катя и Женя устроились подработать в супермаркет. Перед самым закрытием магазина их совершенно случайно заперли в раздевалке.С большим трудом через некоторое время, выбравшись из раздевалки, они с ужасом поняли, что Новогоднюю Ночь им придется провести в безлюдном супермаркете. Но вскоре девушки обнаружили, что они здесь не одни. По залу бродили двое подозрительных парней. Кто они? И как сюда попали?
Рейтинг IMDB:
Рейтинг Kinopoisk:
Качество: DVD5
Формат аудио: AC3
Формат видео: DVD Video
Видео: MPEG2 Video 720x576 (4:3) 25.00fps 9600kbps
Аудио: Dolby AC3 48000Hz 6ch 192kbps [AC-3]

MediaInfo

Код:
General
Complete name : D:\Фильмы\Новый год отменяется!\VIDEO_TS\VTS_01_1.VOB
Format : MPEG-PS
File size : 1 024 MiB
Duration : 20mn 27s
Overall bit rate : 6 994 Kbps
Video
ID : 224 (0xE0)
Format : MPEG Video
Format version : Version 2
Format profile : [email protected]
Format settings, BVOP : Yes
Format settings, Matrix : Default
Format settings, GOP : M=3, N=15
Duration : 20mn 27s
Bit rate mode : Variable
Bit rate : 6 663 Kbps
Nominal bit rate : 9 600 Kbps
Width : 720 pixels
Height : 576 pixels
Display aspect ratio : 4:3
Frame rate : 25.000 fps
Standard : PAL
Color space : YUV
Chroma subsampling : 4:2:0
Bit depth : 8 bits
Scan type : Interlaced
Scan order : Bottom Field First
Bits/(Pixel*Frame) : 0.643
Stream size : 975 MiB (95%)
Audio
ID : 128 (0x80)
Format : AC-3
Format/Info : Audio Coding 3
Mode extension : CM (complete main)
Duration : 20mn 27s
Bit rate mode : Constant
Bit rate : 192 Kbps
Channel(s) : 2 channels
Channel positions : Front: L R
Sampling rate : 48.0 KHz
Bit depth : 16 bits
Video delay : -80ms
Stream size : 28.1 MiB (3%)

DVDInfo

Title: Новый год отменяется!
Size: 4.27 Gb ( 4 478 326,00 KBytes ) - DVD-5
Enabled regions: 1, 2, 3, 4, 5, 6, 7, 8
VTS_01 :
Play Length: 01:23:18
Video: PAL 4:3 (720x576) VBR
Audio:
Russian (Dolby AC3, 2 ch)
VTS_02 :
Play Length: 00:01:33+{00:01:33}+{00:01:33}
Video: PAL 4:3 (720x576) VBR
Audio:
Russian (Dolby AC3, 2 ch)
VTS_03 :
Play Length: 00:02:33+{00:02:33}+{00:02:33}
Video: PAL 4:3 (720x576) VBR
Audio:
Russian (Dolby AC3, 2 ch)
VTS_04 :
Play Length: 00:00:12
Video: PAL 4:3 (720x576) VBR
Audio:
Russian (Dolby AC3, 2 ch)

Скриншоты меню

     

Скриншоты

             

_________________


Last edited by Koralina on 2011-12-17 19:32; edited 1 time in total
Other forum [Profile] [PM]

Dracula

Longevity: 7 years 11 months

Posts: 11007

Торрент-статистика

Post 17-Dec-2011 19:33 (after 2 hours 18 minutes)

Топик был перенесен из форума Наше кино (2001 - 2010) в форум Наше кино (DVD)

Delia
 
Display posts from previous:    
Reply to topic

The time now is: Today 22:32

All times are GMT + 3 Hours



You cannot post new topics in this forum
You cannot reply to topics in this forum
You cannot edit your posts in this forum
You cannot delete your posts in this forum
You cannot vote in polls in this forum
You cannot attach files in this forum
You cannot download files in this forum