Today is a free download without charge Download

Картина мелом / Сезон: 1 Серии: 1-4 из 4 (Валерий Ибрагимов) [2011, детектив, SATRip]

Reply to topic
 
Author
Message

Relizer ®

Gender:

Longevity: 9 years

Posts: 233

Торрент-статистика

Post 17-Dec-2011 13:41

[Quote]

Картина мелом
Год выпуска: 2011
Производство: Украина, ICTV, "Киевской студии телевизионных фильмов"
Жанр: детектив
Продолжительность: 4 х ~ 00:55:00
Режиссёр: Валерий Ибрагимов
В ролях: Лилия Ребрик, Николай Боклан, Сергей Воробьёв, Ярослав Гуревич, Константин Корецкий
Описание: о буднях украинской милиции, которая основана на реальных событиях. Загадочные убийства, запутанные дела, "глухари" - все это расследует новое подразделение МВД Украины. Генерал Тарасов лично собрал лучших следователей. Они совершенно разные, на каждое дело смотрят по-разному, правила игры у каждого свои но все имеют огромный опыт и блестяще работают вместе. Каждая серия - это отдельное уголовное дело.
-
Качество: SATRip
Формат: AVI
Видео кодек: XviD
Аудио кодек: MP3
Видео: 720x400, 25 fps, XviD, ~1720 kbps
Аудио: 48 kHz, MPEG Layer 3, 2 ch, 192 kbps

MI

Видео
Идентификатор : 0
Формат : MPEG-4 Visual
Профиль формата : Advanced [email protected]
Параметр BVOP формата : 1
Параметр QPel формата : Нет
Параметр GMC формата : Без точки перехода
Параметр матрицы формата : Default (H.263)
Идентификатор кодека : XVID
Идентификатор кодека/Подсказка : XviD
Битрейт : 1949 Кбит/сек
Ширина : 720 пикс.
Высота : 400 пикс.
Соотношение сторон : 16:9
Частота кадров : 25,000 кадр/сек
Цветовое пространство : YUV
Подвыборка цветности : 4:2:0
Битовая глубина : 8 бит
Тип развёртки : Прогрессивная
Метод сжатия : С потерями
Бит/(Пиксели*Кадры) : 0.271
Размер потока : 365 Мбайт (91%)
Библиотека кодирования : XviD 1.2.1 (UTC 2008-12-04)
Аудио
Идентификатор : 1
Формат : MPEG Audio
Версия формата : Version 1
Профиль формата : Layer 3
Режим : Joint stereo
Идентификатор кодека : 55
Идентификатор кодека/Подсказка : MP3
Вид битрейта : Постоянный
Битрейт : 192 Кбит/сек
Каналы : 2 канала
Частота : 48,0 КГц
Метод сжатия : С потерями
Размер потока : 35,9 Мбайт (9%)
Выравнивание : Соединение по промежуткам
Продолжительность промежутка : 40 мс. (1,00 видеокадр)
Время предзагрузки промежутка : 504 ms
Библиотека кодирования : LAME3.99.1UUUDy&

Скриншоты

     

_________________
Хк Локомотив #52# Макс ты был моим замечательным другом, пусть земля будет тебе пухом.. #52#07/09/2011- Обращаться с девочкой надо аккуратно, как с ёлочкой...Вырубить и отнести домой:)
Other forum [Profile] [PM]
Display posts from previous:    
Reply to topic

The time now is: Today 10:14

All times are GMT + 3 Hours



You cannot post new topics in this forum
You cannot reply to topics in this forum
You cannot edit your posts in this forum
You cannot delete your posts in this forum
You cannot vote in polls in this forum
You cannot attach files in this forum
You cannot download files in this forum