Today is a free download without charge Download

Жажда / Серии: 1-4 из 4 (Сергей (Алексей Колмогоров) [2011, Россия, военный, DVD9] R5 Original Rus

Reply to topic
 
Author
Message

Relizer ®

Gender:

Longevity: 9 years

Posts: 233

Торрент-статистика

Post 17-Dec-2011 08:01

[Quote]

-Жажда -Страна: Россия
Студия: Одесская киностудия, Талан
Жанр: военный
Год выпуска: 2011
Российская премьера: 9 мая 2011
Дата выхода DVD: 6 декабря 2011, «Lizard Cinema Trade»
Продолжительность: 180 мин
Перевод: Оригинал [Лицензия]
Cубтитры: нет
Оригинальная аудиодорожка: русский-Режиссер: Алексей Колмогоров-В ролях: Тарас Бибич, Карина Андоленко, Олег Васильков, Геннадий Скарга, Сергей Алимпиев, Валерий Крупенин, Кирилл Бурдихин, Сергей Удовик, Станислав Беляев, Владимир Ямненко-Описание: Захватив находящуюся на Днестре в селе Беляевка водонапорную станцию, фашисты лишают осажденную Одессу стабильного водоснабжения. В то же время к русским в плен попадает румынский солдат русского происхождения Андрей, который до войны защищал диплом по захвату этой самой водонапорной станции.
Командование решает перевести пленного в разряд инструктора, чтобы он подготовил десант который вновь заполнит водохранилище, и сможет удерживать ее под контролем необходимое время. В то же время боец отряда Огонек замечает, что его возлюбленная Анна, симпатизирует Андрею. Сможет ли первый отряд захватить станцию, или придется посылать «золотой запас».
-Бонусы: нет- -Релиз группы: -Качество: DVD9 R5
Формат: DVD-Video
Видео кодек: MPEG2
Аудио кодек: AC3
Видео: PAL 4:3 (720x576(0.559)) MPEG Video, 25,000 кадр/сек, 5793 Кбит/сек
Аудио: Russian (Dolby AC3, 2 ch) 192 Кбит/сек, 48,0 КГц--

DVDInfo

Title:
Size: 7.20 Gb ( 7 547 772 KBytes ) - DVD-9
Enabled regions: 1, 2, 3, 4, 5, 6, 7, 8
VTS_01 :
Play Length: 00:00:25
Video: PAL 4:3 (720x576) VBR
Audio:
Russian (Dolby AC3, 6 ch)
VTS_02 :
Play Length: 00:43:02
Video: PAL 4:3 (720x576) VBR
Audio:
Russian (Dolby AC3, 2 ch)
VTS_03 :
Play Length: 00:42:50
Video: PAL 4:3 (720x576) VBR
Audio:
Russian (Dolby AC3, 2 ch)
VTS_04 :
Play Length: 00:43:05
Video: PAL 4:3 (720x576) VBR
Audio:
Russian (Dolby AC3, 2 ch)
VTS_05 :
Play Length: 00:43:09
Video: PAL 4:3 (720x576) VBR
Audio:
Russian (Dolby AC3, 2 ch)

MediaInfo

Общее
Полное имя : G:\Новинки 2011\Zhazhda.2011.DVD9\VIDEO_TS\VTS_02_1.VOB
Формат : MPEG-PS
Размер файла : 1024 Мбайт
Продолжительность : 23 м.
Общий поток : 6107 Кбит/сек
Видео
Идентификатор : 224 (0xE0)
Формат : MPEG Video
Версия формата : Version 2
Профиль формата : [email protected]
Параметр BVOP формата : Да
Параметр матрицы формата : Выборочная
Продолжительность : 23 м.
Вид битрейта : Переменный
Битрейт : 5793 Кбит/сек
Максимальный битрейт : 8000 Кбит/сек
Ширина : 720 пикселей
Высота : 576 пикселей
Соотношение сторон : 4:3
Частота кадров : 25,000 кадров/сек
Стандарт вещания : PAL
Цветовое пространство : YUV
Субдискретизация насыщенности : 4:2:0
Битовая глубина : 8 бит
Тип развёртки : Чересстрочная
Порядок развёртки : Верхнее поле первое
Метод сжатия : С потерями
Бит/(Пиксели*Кадры) : 0.559
Размер потока : 971 Мбайт (95%)
Аудио
Идентификатор : 189 (0xBD)-128 (0x80)
Формат : AC-3
Формат/Информация : Audio Coding 3
Расширение режима : CM (complete main)
Режим смешивания : DVD-Video
Продолжительность : 23 м.
Вид битрейта : Постоянный
Битрейт : 192 Кбит/сек
Каналы : 2 канала
Расположение каналов : Front: L R
Частота : 48,0 КГц
Битовая глубина : 16 бит
Метод сжатия : С потерями
Размер потока : 32,2 Мбайт (3%)

Скриншоты меню

   

Скриншоты сериала

     
--Раздача от группы:

_________________
Хк Локомотив #52# Макс ты был моим замечательным другом, пусть земля будет тебе пухом.. #52#07/09/2011- Обращаться с девочкой надо аккуратно, как с ёлочкой...Вырубить и отнести домой:)
Other forum [Profile] [PM]
Display posts from previous:    
Reply to topic

The time now is: Today 11:43

All times are GMT + 3 Hours



You cannot post new topics in this forum
You cannot reply to topics in this forum
You cannot edit your posts in this forum
You cannot delete your posts in this forum
You cannot vote in polls in this forum
You cannot attach files in this forum
You cannot download files in this forum