Today is a free download without charge Download

Последний лепесток (Роман Качанов) [1977, Рисованный мультфильм, DVDRip]

Reply to topic
 
Author
Message

Omen ®

Longevity: 7 years 11 months

Posts: 181087

Торрент-статистика

Post 23-Apr-2014 05:32

[Quote]

Последний лепесток
Страна: СССР
Жанр: Рисованный мультфильм
Продолжительность: 00:24:51
Год выпуска: 1977
Русские субтитры: нет
Режиссёр: Роман Качанов
Роли озвучивали: Мария Виноградова,Владимир Гуляев,Люсьена Овчинникова
Нина Зорская,М.Громова,Агарь Власова,Т.Дмитриева
Описание: Современная сказка по пьесе В.Катаева «Цветик-семицветик». История о девочке Жене, которая получает от старой волшебницы чудесный цветок, исполняющий любые семь желаний.
Доп. информация:
«Союзмультфильм»
Художники-постановщики: Елена Пророкова, Константин Карпов
Художники: Инна Заруба, Дмитрий Анпилов, Пётр Коробаев, И. Литовская и др.
Оператор: Борис Котов
Директор: Фёдор Иванов
Монтажёр: Любовь Георгиева
Композитор: Геннадий Гладков
Звукорежиссёр: Борис Фильчиков
Редактор: Наталья Абрамова
Качество: DVDRip
Формат: AVI
Видео: 704x528 (1.33:1), 25 fps, XviD 65 ~2147 kbps avg, 0.23 bit/pixel
Аудио: 48 kHz, AC3 Dolby Digital, 3/2 (L,C,R,l,r) + LFE ch, ~384.02 kbps avg
Субтитры: нет

Подробные технические данные

Format : AVIFormat/Info : Audio Video InterleaveFile size : 452 MiBDuration : 24mn 51sOverall bit rate : 2 541 KbpsWriting application : VirtualDubModRus 1.5.10.2 (build 2542/release)Copyright : Rutracker.orgComment : DVDRip by dvdss
VideoID : 0Format : MPEG-4 VisualFormat profile : Advanced [email protected] settings, BVOP : 2Format settings, QPel : NoFormat settings, GMC : No warppointsFormat settings, Matrix : CustomCodec ID : XVIDCodec ID/Hint : XviDDuration : 24mn 51sBit rate : 2 148 KbpsWidth : 704 pixelsHeight : 528 pixelsDisplay aspect ratio : 5:4Original display aspect ratio : 4:3Frame rate : 25.000 fpsColor space : YUVChroma subsampling : 4:2:0Bit depth : 8 bitsScan type : ProgressiveCompression mode : LossyBits/(Pixel*Frame) : 0.231Stream size : 382 MiB (85%)Writing library : XviD 65
AudioID : 1Format : AC-3Format/Info : Audio Coding 3Mode extension : CM (complete main)Format settings, Endianness : BigCodec ID : 2000Duration : 24mn 51sBit rate mode : ConstantBit rate : 384 KbpsChannel(s) : 6 channelsChannel positions : Front: L C R, Side: L R, LFESampling rate : 48.0 KHzBit depth : 16 bitsCompression mode : LossyDelay relative to video : 24msStream size : 68.3 MiB (15%)Alignment : Split accross interleavesInterleave, duration : 40 ms (1.00 video frame)Interleave, preload duration : 500 ms
Other forum [Profile] [PM]
Display posts from previous:    
Reply to topic

The time now is: Today 22:44

All times are GMT + 3 Hours



You cannot post new topics in this forum
You cannot reply to topics in this forum
You cannot edit your posts in this forum
You cannot delete your posts in this forum
You cannot vote in polls in this forum
You cannot attach files in this forum
You cannot download files in this forum