Today is a free download without charge Download

Бездельники (Андрей Зайцев) [2011, Россия, драма, мелодрама, музыка, DVD9] Original Rus

Reply to topic
 
Author
Message

Relizer ®

Gender:

Longevity: 9 years 10 months

Posts: 233

Торрент-статистика

Post 15-Dec-2011 20:12

[Quote]

Бездельники
Страна: Россия
Студия: Сентябрь, ВВП Альянс
Жанр: драма, мелодрама, музыка
Год выпуска: 2011
Продолжительность: 01:33:15
Перевод: Не требуется
Cубтитры: нет
Оригинальная аудиодорожка: русский
Режиссер: Андрей Зайцев
В ролях: Антон Шагин, Андрей Шибаршин, Александра Тюфтей, Полина Филоненко, Ричард Бондарев, Игорь Теплов, Полина Райкина, Лиза Мартинес, Саша Шпиков, Светлана Жиленко
Описание: Фильм по ранним песням Виктора Цоя. Это история про молодого бездельника, легко и весело идущего по жизни. Он бренчит на гитаре и сочиняет песенки. Выпивает с друзьями-бездельниками. Обычная, почти бытовая, история предательства все в корне меняет. Так на свет появляется поэт.
Бонусы: нет
Сэмпл: http://multi-up.com/612713
Тип релиза: DVD9
Контейнер: DVD-Video
Видео: PAL 16:9 (720x576(0.673)) MPEG Video, 25,000 кадр/сек, 6980 Кбит/сек
Аудио: Russian (Dolby AC3, 2 ch) 224 Кбит/сек, 48,0 КГц--

DVDInfo

Title:
Size: 4.76 Gb ( 4 988 122 KBytes ) - DVD-9
Enabled regions: 1, 2, 3, 4, 5, 6, 7, 8
VTS_01 :
Play Length: 00:00:15
Video: PAL 4:3 (720x576) VBR
Audio:
Not specified (Dolby AC3, 2 ch)
VTS_02 :
Play Length: 00:00:08
Video: PAL 16:9 (720x576) VBR, Auto Pan&Scan
Audio:
Not specified (Dolby AC3, 2 ch)
VTS_03 :
Play Length: 01:33:15
Video: PAL 16:9 (720x576) VBR, Auto Pan&Scan
Audio:
Russian (Dolby AC3, 2 ch)

MediaInfo

Общее
Полное имя : G:\Новинки 2011\Bezdelniki.2011.DVD9\VIDEO_TS\VTS_03_1.VOB
Формат : MPEG-PS
Размер файла : 1024 Мбайт
Продолжительность : 19 м.
Общий поток : 7351 Кбит/сек
Видео
Идентификатор : 224 (0xE0)
Формат : MPEG Video
Версия формата : Version 2
Профиль формата : [email protected]
Параметр BVOP формата : Да
Параметр матрицы формата : По умолчанию
Параметр GOP формата : M=3, N=12
Продолжительность : 19 м.
Вид битрейта : Переменный
Битрейт : 6980 Кбит/сек
Максимальный битрейт : 7800 Кбит/сек
Ширина : 720 пикселей
Высота : 576 пикселей
Соотношение сторон : 16:9
Частота кадров : 25,000 кадров/сек
Стандарт вещания : PAL
Цветовое пространство : YUV
Субдискретизация насыщенности : 4:2:0
Битовая глубина : 8 бит
Тип развёртки : Прогрессивная
Метод сжатия : С потерями
Бит/(Пиксели*Кадры) : 0.673
Размер потока : 972 Мбайт (95%)
Аудио
Идентификатор : 189 (0xBD)-128 (0x80)
Формат : AC-3
Формат/Информация : Audio Coding 3
Расширение режима : CM (complete main)
Режим смешивания : DVD-Video
Продолжительность : 19 м.
Вид битрейта : Постоянный
Битрейт : 224 Кбит/сек
Каналы : 2 канала
Расположение каналов : Front: L R
Частота : 48,0 КГц
Битовая глубина : 16 бит
Метод сжатия : С потерями
Размер потока : 31,2 Мбайт (3%)

Скриншоты меню

   

Скриншоты фильма

     
-

_________________
Хк Локомотив #52# Макс ты был моим замечательным другом, пусть земля будет тебе пухом.. #52#07/09/2011- Обращаться с девочкой надо аккуратно, как с ёлочкой...Вырубить и отнести домой:)
Other forum [Profile] [PM]
Display posts from previous:    
Reply to topic

The time now is: Today 13:09

All times are GMT + 3 Hours



You cannot post new topics in this forum
You cannot reply to topics in this forum
You cannot edit your posts in this forum
You cannot delete your posts in this forum
You cannot vote in polls in this forum
You cannot attach files in this forum
You cannot download files in this forum