Today is a free download without charge Download

Уловка .44 / Catch .44 (Аарон Харви) [2011 г., триллер, драма, криминал, BDRip720p]

Reply to topic
 
Author
Message

sassad ®

Gender:

Longevity: 10 years

Posts: 1214

Location: Галич

Торрент-статистика

Post 15-Dec-2011 18:13

[Quote]

Уловка .44 / Catch .44--
Год выпуска: 2011
Страна: США
Жанр: триллер, драма, криминал
Продолжительность: 94 мин. / 01:34
Перевод: Профессиональный (многоголосый закадровый)(BBC Saint-Petersburg)-Режиссер: Аарон Харви
Продюссер: Майкл Бенаройя, Меган Эллисон, Рэндолл Эмметт
Сценарий: Аарон Харви
Премьера в мире: 9 декабря 2011
R - Лицам до 17 лет обязательно присутствие взрослого


В ролях: Форест Уитакер, Брюс Уиллис, Малин Акерман, Никки Рид, Дебора Энн Уолл, Брэд Дуриф, Рейла Афродит, Кевин Бирд, Аманда Босли, Эрик Браун-Описание: Тес, Доун и Кара — три девушки, зарабатывающие на кусок хлеба в Вегасе. Однажды их жизни круто меняют свой плавный ход, превращаясь в сюжет самой настоящей детективной истории. Это происходит после случайного знакомства Тес со странным незнакомцем по имени Мэл, который предлагает девушкам шанс на лучшую жизнь через совершение «маленького правонарушения». Не долго думая, подруги решают согласиться на заманчивую сделку, ещё не зная, что же ждёт их впереди. Но стремление изменить жизнь к лучшему, выбраться из пут «скучной жизни» берёт верх, поэтому подруги оказываются вовлечены в водоворот незабываемых приключений и попадают в самый центр явно не скучного развития событий. Когда девушки понимают, что «соскочить» уже не получится, им приходится идти до конца, ценой неимоверных усилий расхлёбывать кашу, которую они сами же и заварили...-Качество: BDRip720p
Формат: MKV
Видео кодек: H.26x
Аудио кодек: DTS
Видео: MPEG-4 AVC, 6022 Кбит/с, 1280x534, 23.976 кадр/с
Аудио: Русский (DTS, 6 ch, 1510 Кбит/с) / Английский (DTS, 6 ch, 1510 Кбит/с)

--

Инфо.о файле

Код:
Уникальный идентификатор : 241845173183251480930521282916481643117 (0xB5F1AFA3D9CB059E8AF7219A70A6326D)
Полное имя : Ulovka.44.2011.x264.BDRip(720p).Uniongang.mkv
Формат : Matroska
Размер файла : 6,00 Гбайт
Продолжительность : 1 ч. 33 м.
Общий поток : 9148 Кбит/сек
Название фильма : Ulovka.44.2011.x264.BDRip(720p).Uniongang.mkv
Дата кодирования : UTC 2011-12-15 08:03:01
Программа кодирования : mkvmerge v5.1.0 ('And so it goes') built on Nov 28 2011 23:58:28
Библиотека кодирования : libebml v1.2.3 + libmatroska v1.3.0
Видео
Идентификатор : 1
Формат : AVC
Формат/Информация : Advanced Video Codec
Профиль формата : [email protected]
Параметр CABAC формата : Да
Параметр ReFrames формата : 8 кадры
Идентификатор кодека : V_MPEG4/ISO/AVC
Продолжительность : 1 ч. 33 м.
Битрейт : 6022 Кбит/сек
Ширина : 1280 пикс.
Высота : 534 пикс.
Соотношение сторон : 2,35:1
Частота кадров : 23,976 кадр/сек
Цветовое пространство : YUV
Подвыборка цветности : 4:2:0
Битовая глубина : 8 бит
Тип развёртки : Прогрессивная
Бит/(Пиксели*Кадры) : 0.367
Размер потока : 3,90 Гбайт (65%)
Библиотека кодирования : x264 core 98 r1649 c54c47d
Настройки программы : cabac=1 / ref=8 / deblock=1:-3:-3 / analyse=0x3:0x113 / me=umh / subme=9 / psy=1 / psy_rd=1.10:0.00 / mixed_ref=1 / me_range=32 / chroma_me=1 / trellis=2 / 8x8dct=1 / cqm=0 / deadzone=21,11 / fast_pskip=0 / chroma_qp_offset=-4 / threads=12 / sliced_threads=0 / nr=0 / decimate=0 / interlaced=0 / constrained_intra=0 / bframes=8 / b_pyramid=2 / b_adapt=2 / b_bias=0 / direct=3 / weightb=1 / weightp=2 / keyint=250 / keyint_min=25 / scenecut=40 / intra_refresh=0 / rc_lookahead=48 / rc=2pass / mbtree=1 / bitrate=6022 / ratetol=1.0 / qcomp=0.60 / qpmin=10 / qpmax=51 / qpstep=4 / cplxblur=20.0 / qblur=0.5 / ip_ratio=1.40 / aq=1:0.80
Язык : English
Аудио #1
Идентификатор : 2
Формат : DTS
Формат/Информация : Digital Theater Systems
Идентификатор кодека : A_DTS
Продолжительность : 1 ч. 33 м.
Вид битрейта : Постоянный
Битрейт : 1510 Кбит/сек
Канал(ы) : 6 канала(ов)
Расположение каналов : Front: L C R, Side: L R, LFE
Частота : 48,0 КГц
Битовая глубина : 24 бит
Метод сжатия : С потерями
Размер потока : 1014 Мбайт (17%)
Язык : Russian
Аудио #2
Идентификатор : 3
Формат : DTS
Формат/Информация : Digital Theater Systems
Идентификатор кодека : A_DTS
Продолжительность : 1 ч. 33 м.
Вид битрейта : Постоянный
Битрейт : 1510 Кбит/сек
Канал(ы) : 6 канала(ов)
Расположение каналов : Front: L C R, Side: L R, LFE
Частота : 48,0 КГц
Битовая глубина : 24 бит
Метод сжатия : С потерями
Размер потока : 1014 Мбайт (17%)
Язык : English
Текст #1
Идентификатор : 4
Формат : PGS
Идентификатор кодека : S_HDMV/PGS
Идентификатор кодека/Информация : The same subtitle format used on BDs/HD-DVDs
Язык : Russian
Текст #2
Идентификатор : 5
Формат : PGS
Идентификатор кодека : S_HDMV/PGS
Идентификатор кодека/Информация : The same subtitle format used on BDs/HD-DVDs
Язык : English
Меню
00:00:00.000 : en:00:00:00
00:11:19.804 : en:00:11:19
00:17:31.967 : en:00:17:31
00:23:14.226 : en:00:23:14
00:28:02.347 : en:00:28:02
00:34:23.561 : en:00:34:23
00:39:55.184 : en:00:39:55
00:45:59.548 : en:00:45:59
00:54:26.346 : en:00:54:26
01:03:27.053 : en:01:03:27
01:14:04.648 : en:01:14:04
01:25:22.033 : en:01:25:22
--

Скриншоты

       -

_________________
Other forum [Profile] [PM]
Display posts from previous:    
Reply to topic

The time now is: Today 11:12

All times are GMT + 3 Hours



You cannot post new topics in this forum
You cannot reply to topics in this forum
You cannot edit your posts in this forum
You cannot delete your posts in this forum
You cannot vote in polls in this forum
You cannot attach files in this forum
You cannot download files in this forum