Today is a free download without charge Download

Mylene Farmer - The Farmer project + репортаж о съёмке. [720p+DD 5.1] [2009 г., Pop., HDTVRip]

Reply to topic
 
Author
Message

Koralina ®

Longevity: 9 years 8 months

Posts: 994

Location: Lithuania

Торрент-статистика

Post 14-Dec-2011 23:20

[Quote]

Mylene Farmer - The Farmer Project Оригинальное название: Mylene Farmer - The Farmer Project
Страна: France
Жанр: POP
Дата выхода: 2009
Продолжительность: 21:04 мин.
Режиссер: Bruno Aveillan
В ролях: Mylene Farmer
Однажды, в одной далёкой стране произошло невероятное событие. Двое полицейских, находящихся на ночном дежурстве, были потрясены, увидев внезапно появляющийся в воздухе светящийся силуэт. Он принял человеческие очертания (это была Милен). Испуганные полицейские жестоко ловят инопланетянку и...
...она очнулась связанной в медицинской лаборатории. Над ней собираются поставить ряд смертельно опасных экспериментов, но ей удаётся спастись. На применение физической силы со стороны землян, инопланетянка отвечает неожиданно - распространяя флюиды любви. Она выходит из помещения и, перемещаясь по коридорам больницы, неожиданно находит лабораторию, в которой ставят опыты над животными. Будучи потрясённой их страданиями и существующей несправедливостью, Милен использует свою волшебную силу для лечения животных.
Она освобождает их всех, перед тем как слиться со Вселенной, отправляясь так далеко от жестокости людей.
Клип Милен Фармер - "Si j'avais au moins..." является продолжением "Dégénération".
По сути эти два клипа составляют один фильм "The Farmer Project" режиссера Bruno Aveillan. "The Farmer Project" также рассказывает предысторию, как инопланетянка Милен попала на военную лабораторию.
Качество: HDTVRip
Формат видео: MKV
Формат аудио: AC3
Видео: 1280x720 [720p] (16:9) 25.00 кад/с. (6 mbps.).
Аудио: Dolby Digital 5.1 (48 khz., 384 kbps.).

MediaInfo

Общее
Уникальный идентификатор : 209077115022341436241436571109446341173 (0x9D4AC9A37AF836B491E5134C4C635235)
Полное имя : D:\ВРЕМЕННАЯ\Mylene Farmer - The Famer project [HD 720p + DD 5.1]\Mylene Farmer - The Farmer Project DD 5.1.mkv
Формат : Matroska
Версия формата : Version 1
Размер файла : 938 Мбайт
Продолжительность : 21 м.
Общий поток : 6224 Кбит/сек
Дата кодирования : UTC 2009-04-02 13:59:56
Программа кодирования : mkvmerge v2.4.2 ('Oh My God') built on Jan 18 2009 17:30:28
Библиотека кодирования : libebml v0.7.7 + libmatroska v0.8.1
Видео
Идентификатор : 1
Формат : AVC
Формат/Информация : Advanced Video Codec
Профиль формата : [email protected]
Параметр CABAC формата : Да
Параметр ReFrames формата : 1 кадр
Идентификатор кодека : V_MPEG4/ISO/AVC
Продолжительность : 21 м.
Битрейт : 5716 Кбит/сек
Номинальный битрейт : 6054 Кбит/сек
Ширина : 1280 пикселей
Высота : 720 пикселей
Соотношение сторон : 16:9
Частота кадров : 25,000 кадров/сек
Цветовое пространство : YUV
Субдискретизация насыщенности : 4:2:0
Битовая глубина : 8 бит
Тип развёртки : Прогрессивная
Бит/(Пиксели*Кадры) : 0.248
Размер потока : 861 Мбайт (92%)
Библиотека кодирования : x264 core 66 r1114bm a933a3e
Настройки программы : cabac=1 / ref=1 / deblock=1:0:0 / analyse=0x3:0x33 / me=umh / subme=7 / psy_rd=0.0:0.0 / mixed_ref=0 / me_range=16 / chroma_me=1 / trellis=1 / 8x8dct=1 / cqm=0 / deadzone=21,11 / chroma_qp_offset=0 / threads=1 / thread_queue=1 / nr=0 / decimate=1 / mbaff=0 / bframes=0 / keyint=250 / keyint_min=25 / scenecut=40 / rc=abr / bitrate=6054 / ratetol=1.0 / qcomp=0.60 / qpmin=10 / qpmax=51 / qpstep=4 / ip_ratio=1.40 / aq=1:1.00:0:10.00
Аудио
Идентификатор : 2
Формат : AC-3
Формат/Информация : Audio Coding 3
Расширение режима : CM (complete main)
Идентификатор кодека : A_AC3
Продолжительность : 21 м.
Вид битрейта : Постоянный
Битрейт : 384 Кбит/сек
Каналы : 6 каналов
Расположение каналов : Front: L C R, Side: L R, LFE
Частота : 48,0 КГц
Битовая глубина : 16 бит
Метод сжатия : С потерями
Размер потока : 57,9 Мбайт (6%)

Скриншоты

 
 
 
 
 
 

_________________
Other forum [Profile] [PM]
Display posts from previous:    
Reply to topic

The time now is: Today 11:20

All times are GMT + 3 Hours



You cannot post new topics in this forum
You cannot reply to topics in this forum
You cannot edit your posts in this forum
You cannot delete your posts in this forum
You cannot vote in polls in this forum
You cannot attach files in this forum
You cannot download files in this forum