Today is a free download without charge Download

Афера / Confidence (Джеймс Фоули / James Foley) [2003 г., триллер, криминал, детектив, DVDRip]

Reply to topic
 
Author
Message

Omen ®

Longevity: 6 years 6 months

Posts: 181112

Торрент-статистика

Post 12-Dec-2011 22:21

[Quote]

Афера
Confidence


Год выпуска: 2003
Страна: США
Жанр: триллер, криминал, детектив
Продолжительность:01:33:11
Перевод: Профессиональный (многоголосый, закадровый)
Русские субтитры: нет
Режиссер: Джеймс Фоули / James Foley
В ролях:
Дастин Хоффман /Dustin Hoffman/,Эдвард Бернс /Edward Burns/, Энди Гарсиа /Andy Garcia/, Пол Джиаматти /Paul Giamatti/, , Рэйчел Вайц /Rachel Weisz/Описание:Джейк Вига — хитроумный и обаятельный мошенник Последняя афера Джейка привела к тому, что его дорожки пересеклись с мафией — при помощи своей команды он лишил нескольких тысяч долларов Лайонела Долби, — счетовода эксцентричного мафиозного босса Уинстона Кинга по прозвищу 'Король'.
Мафия шутить не любит, а любит выбивать долги из тех, кто пытается ее надуть. Чтобы сохранить жизнь и расквитаться с долгами, Джейку приходится устроить новую, еще более изощренную аферу — сложнейшую схему, в которой требуется 'творческий подход к бухгалтерии'. Неожиданные помехи появляются одна за другой: палки в колеса Джейку вставляют его старый враг, агент ФБР Гюнтер Бутан, Трэвис, правая рука 'Короля' и хитроумная блондинка-карманщица Лили на которую Джейк успел положил глаз...
Очевидно, сюжетные параллели с классической 'Аферой' Джорджа Роя Хилла навели наших прокатчиков на мысль, что новую ленту Джеймса Фоули следует выпустить под тем же названием. Творение режиссёра уже привлекает тем, что в нём снялось невероятное количество хороших актёров — начиная с мэтра американского кино Дастина Хоффмана и заканчивая баловнем судьбы Эдвардом Бёрнсом.
Фильм очень интересный, сюжет продуман, а самое главное - не банален, из-за чего уже фильм приятно смотреть. Очень классно сыграл Дастин Хоффман, и это так понятно, потому что от него плохой игры невозможно ожидать. Советую всем смотреть, особенно тем, кто любит мафиозные разборки.
- -Качество: DVDRip(Исх. DVD9)
Формат: AVI
Видео кодек: XviD
Аудио кодек: AC3
Видео: 720x304 (2.37:1), 25 fps, XviD build 50 ~1787 kbps avg, 0.33 bit/pixel
Аудио: 48 kHz, AC3 Dolby Digital, 3/2 (L,C,R,l,r) + LFE ch, ~448 kbps-

AviInfo

Код:
File: Afera.chopper887.avi
Filesize: 1496.62 Mb ( 1 569 314 816 bytes )
Play length: 01:33:11.040 (139776 frames)
Subtitles: Not Present
Video: 720x304 (2.37:1), 25 fps, XviD build 50 ~1787 kbps avg, 0.33 bit/pixel
Audio: 48 kHz, AC3 Dolby Digital, 3/2 (L,C,R,l,r) + LFE ch, ~448 kbps

MediaInfo

Код:
General
Complete name : J:\Afera.chopper887.avi
Format : AVI
Format/Info : Audio Video Interleave
File size : 1.46 GiB
Duration : 1h 33mn
Overall bit rate : 2 245 Kbps
Writing application : VirtualDubMod 1.5.10.1 Рус от Stvens Inc.™ www.stvens.amillo.net (build 2439/release)
Writing library : VirtualDubMod build 2439/release
Video
ID : 0
Format : MPEG-4 Visual
Format profile : Advanced [email protected]
[color=darkred][i][b]Format settings, BVOP : Yes
Format settings, QPel : No
Format settings, GMC : No warppoints[/b][/i][/color]
Format settings, Matrix : Custom
Codec ID : XVID
Codec ID/Hint : XviD
Duration : 1h 33mn
Bit rate : 1 788 Kbps
Width : 720 pixels
Height : 304 pixels
Display aspect ratio : 2.35:1
Frame rate : 25.000 fps
Resolution : 8 bits
Colorimetry : 4:2:0
Scan type : Progressive
Bits/(Pixel*Frame) : 0.327
Stream size : 1.16 GiB (80%)
Writing library : XviD 1.2.1 (UTC 2008-12-04)
Audio
ID : 1
Format : AC-3
Format/Info : Audio Coding 3
Codec ID : 2000
Duration : 1h 33mn
Bit rate mode : Constant
Bit rate : 448 Kbps
Channel(s) : 6 channels
Channel positions : Front: L C R, Surround: L R, LFE
Sampling rate : 48.0 KHz
Stream size : 299 MiB (20%)
Alignment : Split accross interleaves
Interleave, duration : 40 ms (1.00 video frame)
Interleave, preload duration : 500 ms

Скриншоты

         
           
Other forum [Profile] [PM]
Display posts from previous:    
Reply to topic

The time now is: Today 19:09

All times are GMT + 3 Hours



You cannot post new topics in this forum
You cannot reply to topics in this forum
You cannot edit your posts in this forum
You cannot delete your posts in this forum
You cannot vote in polls in this forum
You cannot attach files in this forum
You cannot download files in this forum