Today is a free download without charge Download

Большой и Маленький (Музраб Баймухамедов) [1981, Кукольный мультфильм, VHSRip]

Reply to topic
 
Author
Message

Omen ®

Longevity: 7 years 11 months

Posts: 181087

Торрент-статистика

Post 12-Apr-2014 23:02

[Quote]

Большой и Маленький
Страна: СССР
Жанр: Куольный мультфильм
Продолжительность: 00:09:08
Год выпуска: 1981
Русские субтитры: нет
Режиссёр: Музраб Баймухамедов
Роли озвучивали: З.Гердт
Описание: Однажды, в одном кишлаке произошло чудо. Вылепил старый одинокий гончар себе из глины сына-помощника, трудолюбивого и послушного. Увидев это, богатый и бездетный бай с завистливой женой тоже решил вылепить из глины себе сына, но получился у него ленивый обжора….
Доп. информация: «Узбекфильм»
художник-постановщик А.Дорожинская
xудожники-кукловоды: Л.корикова,С.Попова,Л.Усачева
композитор: В.Милов
редактор: Н.Ульянова
Релиз группы:
Исходник для рипа любезно представлен Alenavova
Качество: VHSRip
Формат: AVI
Видео: 640x480 (1.33:1), 25 fps, XviD MPEG-4 ~2150 kbps avg, 0.28 bit/pixel
Аудио: 48 kHz, AC3 Dolby Digital, 1/0 (C) ch, ~192.00 kbps avg
Субтитры: нет

Подробные технические данные

Format : AVIFormat/Info : Audio Video InterleaveFile size : 154 MiBDuration : 9mn 8sOverall bit rate : 2 353 KbpsWriting application : VirtualDubModRus 1.5.10.2 (build 2542/release)Copyright : Rutracker.orgComment : VHSRip by dvdss
VideoID : 0Format : MPEG-4 VisualFormat profile : Advanced [email protected] settings, BVOP : 2Format settings, QPel : NoFormat settings, GMC : No warppointsFormat settings, Matrix : CustomCodec ID : XVIDCodec ID/Hint : XviDDuration : 9mn 8sBit rate : 2 151 KbpsWidth : 640 pixelsHeight : 480 pixelsDisplay aspect ratio : 5:4Original display aspect ratio : 4:3Frame rate : 25.000 fpsColor space : YUVChroma subsampling : 4:2:0Bit depth : 8 bitsScan type : ProgressiveCompression mode : LossyBits/(Pixel*Frame) : 0.280Stream size : 141 MiB (91%)Writing library : XviD 65
AudioID : 1Format : AC-3Format/Info : Audio Coding 3Mode extension : CM (complete main)Format settings, Endianness : BigCodec ID : 2000Duration : 9mn 8sBit rate mode : ConstantBit rate : 192 KbpsChannel(s) : 1 channelChannel positions : Front: CSampling rate : 48.0 KHzBit depth : 16 bitsCompression mode : LossyStream size : 12.6 MiB (8%)Alignment : Split accross interleavesInterleave, duration : 40 ms (1.00 video frame)Interleave, preload duration : 500 ms

Скриншоты

Other forum [Profile] [PM]
Similar theme
Forum Topic Author Torrent Replies Last Post
./templates/default/images/folder_dl.gif Медицина и Здоровье В.В.Похлебкин | Большая энциклопедия кулинарного искусства. Все рецепты В.В. Похлёбкина [2008] [FB2] UndegraundMen
1 | 0

0 | 821

0

2013-04-03 00:03
UndegraundMen Latest
./templates/default/images/folder_dl.gif Обучающее видео Специалист | Основы работы с большими данными: Data Science Orientation (2017) PCRec Omen
1 | 0

0 | 646

1

2016-03-09 03:18
Omen Latest
./templates/default/images/folder_dl.gif Обучающая и развивающая литература, учебники Г. Л. Билич - Анатомия человека. Большой популярный атлас [2015, PDF, RUS] Anonymous
1 | 0

0 | 2882

15

2017-01-11 12:10
Anonymous Latest
./templates/default/images/folder_dl.gif Домоводство, Сад, Огород, Хобби Галина Кизима | Большая энциклопедия садовода-огородника от А до Я (2017) [FB2] }{@R0N
1 | 0

0 | 2633

25

2017-02-16 19:40
}{@R0N Latest
./templates/default/images/folder_dl.gif Фантастика, фэнтези, ужасы, мистика Валерий Большаков | Первопроходец. Бомж с планеты Земля (2019) [FB2] }{@R0N
1 | 0

0 | 1244

0

2019-06-09 22:59
}{@R0N Latest
Display posts from previous:    
Reply to topic

The time now is: Today 22:29

All times are GMT + 3 Hours



You cannot post new topics in this forum
You cannot reply to topics in this forum
You cannot edit your posts in this forum
You cannot delete your posts in this forum
You cannot vote in polls in this forum
You cannot attach files in this forum
You cannot download files in this forum