Today is a free download without charge Download

Узел (Калью Киви) [1983, Кукольный мультфильм, VHSRip]

Reply to topic
 
Author
Message

Omen ®

Longevity: 7 years 11 months

Posts: 181087

Торрент-статистика

Post 12-Apr-2014 23:00

[Quote]

Узел
Страна: CCCР
Жанр: Кукольный мультфильм
Продолжительность: 00:07:36
Год выпуска: 1983
Русские субтитры: нет
Режиссёр: Калью Киви
Описание: История о двух веревочных человечках, связанных одним узелком и пытающихся разделить свои судьбы (для взрослых)
Доп. информация: «Таллинфильм»
сценарист: Т.Кааль
художник-постановщик Виктор Никитин
xудожники: Т.Кааль,Р.Унт
xудожники-мультипликаторы: Т. Сахкаи,М.Бамберг,К.Курепыльд
композитор: А.Вальконен,Р.Кангро
Релиз группы:
Исходник для рипа любезно представлен alenavova
Качество: VHSRip
Формат: AVI
Видео: 640x480 (1.33:1), 25 fps, XviD MPEG-4 ~2152 kbps avg, 0.28 bit/pixel
Аудио: 48 kHz, AC3 Dolby Digital, 1/0 (C) ch, ~192.00 kbps avg
Субтитры: нет

Подробные технические данные

Format : AVIFormat/Info : Audio Video InterleaveFile size : 128 MiBDuration : 7mn 36sOverall bit rate : 2 355 KbpsWriting application : VirtualDubModRus 1.5.10.2 (build 2542/release)Copyright : Rutracker.orgComment : VHSRip by dvdss
VideoID : 0Format : MPEG-4 VisualFormat profile : Advanced [email protected] settings, BVOP : 2Format settings, QPel : NoFormat settings, GMC : No warppointsFormat settings, Matrix : CustomCodec ID : XVIDCodec ID/Hint : XviDDuration : 7mn 36sBit rate : 2 153 KbpsWidth : 640 pixelsHeight : 480 pixelsDisplay aspect ratio : 5:4Original display aspect ratio : 4:3Frame rate : 25.000 fpsColor space : YUVChroma subsampling : 4:2:0Bit depth : 8 bitsScan type : ProgressiveCompression mode : LossyBits/(Pixel*Frame) : 0.280Stream size : 117 MiB (91%)Writing library : XviD 65
AudioID : 1Format : AC-3Format/Info : Audio Coding 3Mode extension : CM (complete main)Format settings, Endianness : BigCodec ID : 2000Duration : 7mn 35sBit rate mode : ConstantBit rate : 192 KbpsChannel(s) : 1 channelChannel positions : Front: CSampling rate : 48.0 KHzBit depth : 16 bitsCompression mode : LossyDelay relative to video : 20msStream size : 10.4 MiB (8%)Alignment : Split accross interleavesInterleave, duration : 40 ms (1.00 video frame)Interleave, preload duration : 500 ms

Скриншоты

Other forum [Profile] [PM]
Display posts from previous:    
Reply to topic

The time now is: Today 12:50

All times are GMT + 3 Hours



You cannot post new topics in this forum
You cannot reply to topics in this forum
You cannot edit your posts in this forum
You cannot delete your posts in this forum
You cannot vote in polls in this forum
You cannot attach files in this forum
You cannot download files in this forum