Today is a free download without charge Download

Восстание планеты обезьян / Rise of the Planet of the Apes (Руперт Уайатт / Rupert Wyatt) [2011, США, фантастика, боевик, триллер, драма, DVD9] R5 «Двадцатый Век Фокс СНГ»

Reply to topic
 
Author
Message

voovaz ®

Gender:

Longevity: 9 years 5 months

Posts: 87

Торрент-статистика

Post 11-Dec-2011 22:27

[Quote]

-Восстание планеты обезьян / Rise of the Planet of the Apes-«Evolution Becomes Revolution» -Страна: США
Студия: Chernin Entertainment, Twentieth Century Fox Film Corporation
Жанр: фантастика, боевик, триллер, драма
Год выпуска: 2011
Мировая премьера: 3 августа 2011
Российская премьера: 4 августа 2011, «Двадцатый Век Фокс СНГ»
Дата выхода DVD: 15 декабря 2011, «Двадцатый Век Фокс СНГ»
Дата выхода Blu-Ray: 15 декабря 2011, «Двадцатый Век Фокс СНГ»
Продолжительность: 01:40:40
Перевод: Профессиональный (дублированный) [Лицензия]
Cубтитры: русские, английские, болгарские, хорватские, чешские, эстонские, мадьярские, латышские, литовские, румынские, сербские, словенские, украинские
Оригинальная аудиодорожка: английский-Режиссер: Руперт Уайатт / Rupert Wyatt-В ролях: Джеймс Франко, Джон Литгоу, Фрида Пинто, Тайлер Лэбин, Брайан Кокс, Том Фелтон, Дэвид Ойелоуо, Джэми Харрис, Дэвид Хьюлетт, Ти Олссон-Описание: Молодой ученый испытывает на обезьянах новое лекарство от болезни Альцгеймера. У препарата обнаруживается удивительный побочный эффект: он повышает в несколько раз интеллект приматов.
-Бонусы: Удаленные сцены, мифология обезьян, гениальность Энди Серкиса- -Качество: DVD9 R5
Формат: DVD-Video
Видео кодек: MPEG2
Аудио кодек: AC3
Видео: PAL 16:9 (720x576(0.594)) MPEG Video, 25,000 кадр/сек, 6158 Кбит/сек
Аудио #1: English (Dolby AC3, 6 ch) 448 Кбит/сек, 48,0 КГц
Аудио #2: Russian (Dolby AC3, 6 ch) 384 Кбит/сек, 48,0 КГц
Аудио #3: Czech(Ceske) (Dolby AC3, 6 ch) 384 Кбит/сек, 48,0 КГц
Аудио #4: Magyar (Dolby AC3, 6 ch) 384 Кбит/сек, 48,0 КГц
Аудио #5: Ukrainian (Dolby AC3, 6 ch) 384 Кбит/сек, 48,0 КГц-
-

DVDInfo

Title:
Size: 6.43 Gb ( 6 740 616 KBytes ) - DVD-9
Enabled regions: 1, 2, 3, 4, 5, 6, 7, 8
VTS_01 :
Play Length: 00:00:01
Video: PAL 16:9 (720x576) VBR, Auto Letterboxed
Audio:
Not specified (Dolby AC3, 2 ch)
Not specified (Dolby AC3, 2 ch)
Not specified (Dolby AC3, 2 ch)
Not specified (Dolby AC3, 2 ch)
Not specified (Dolby AC3, 2 ch)
Not specified (Dolby AC3, 2 ch)
Not specified (Dolby AC3, 2 ch)
Not specified (Dolby AC3, 2 ch)
Subtitles:
Not specified
Not specified
Not specified
Not specified
Not specified
Not specified
Not specified
Not specified
Not specified
Not specified
Not specified
Not specified
VTS_02 :
Play Length: 01:40:40
Video: PAL 16:9 (720x576) VBR, Auto Pan&Scan
Audio:
English (Dolby AC3, 6 ch)
Russian (Dolby AC3, 6 ch)
Czech(Ceske) (Dolby AC3, 6 ch)
Magyar (Dolby AC3, 6 ch)
Ukrainian (Dolby AC3, 6 ch)
Subtitles:
English
Russian
Bulgarian
Hrvatski
Czech(Ceske)
Estonian
Magyar
Latvian
Lithuanian
Romanian
Serbian
Slovenian
Ukrainian
English
Russian
Czech(Ceske)
Magyar
Ukrainian
VTS_03 :
Play Length: 00:01:44+00:00:46+00:00:53
Video: PAL 16:9 (720x576) VBR, Auto Pan&Scan
Audio:
English (Dolby AC3, 6 ch)
Subtitles:
Russian
Czech(Ceske)
Magyar
VTS_04 :
Play Length: 00:06:55
Video: PAL 16:9 (720x576) VBR, Auto Pan&Scan
Audio:
English (Dolby AC3, 2 ch)
Subtitles:
Russian
Czech(Ceske)
Magyar
VTS_05 :
Play Length: 00:07:31
Video: PAL 16:9 (720x576) VBR, Auto Pan&Scan
Audio:
English (Dolby AC3, 2 ch)
Subtitles:
Russian
Czech(Ceske)
Magyar
VTS_06 :
Play Length:
Video: PAL 16:9 (720x576) VBR, Auto Pan&Scan
VTS_07 :
Play Length: 00:00:24
Video: PAL 16:9 (720x576) VBR, Auto Pan&Scan
Audio:
Not specified (Dolby AC3, 6 ch)

MediaInfo

Общее
Полное имя : G:\Новинки 2011\Vosstanie.planety.obez'jan.2011.DVD9\VIDEO_TS\VTS_02_4.VOB
Формат : MPEG-PS
Размер файла : 1024 Мбайт
Продолжительность : 17 м.
Общий поток : 8308 Кбит/сек
Видео
Идентификатор : 224 (0xE0)
Формат : MPEG Video
Версия формата : Version 2
Профиль формата : [email protected]
Параметр BVOP формата : Да
Параметр матрицы формата : Выборочная
Параметр GOP формата : M=3, N=12
Продолжительность : 17 м.
Вид битрейта : Переменный
Битрейт : 6158 Кбит/сек
Максимальный битрейт : 9800 Кбит/сек
Ширина : 720 пикселей
Высота : 576 пикселей
Соотношение сторон : 16:9
Частота кадров : 25,000 кадров/сек
Стандарт вещания : Component
Цветовое пространство : YUV
Субдискретизация насыщенности : 4:2:0
Битовая глубина : 8 бит
Тип развёртки : Прогрессивная
Порядок развёртки : Верхнее поле первое
Метод сжатия : С потерями
Бит/(Пиксели*Кадры) : 0.594
Размер потока : 759 Мбайт (74%)
Аудио #1
Идентификатор : 189 (0xBD)-128 (0x80)
Формат : AC-3
Формат/Информация : Audio Coding 3
Расширение режима : CM (complete main)
Режим смешивания : DVD-Video
Продолжительность : 17 м.
Вид битрейта : Постоянный
Битрейт : 448 Кбит/сек
Каналы : 6 каналов
Расположение каналов : Front: L C R, Side: L R, LFE
Частота : 48,0 КГц
Битовая глубина : 16 бит
Метод сжатия : С потерями
Задержка видео : -744 мс.
Размер потока : 55,2 Мбайт (5%)
Аудио #2
Идентификатор : 189 (0xBD)-129 (0x81)
Формат : AC-3
Формат/Информация : Audio Coding 3
Расширение режима : CM (complete main)
Режим смешивания : DVD-Video
Продолжительность : 17 м.
Вид битрейта : Постоянный
Битрейт : 384 Кбит/сек
Каналы : 6 каналов
Расположение каналов : Front: L C R, Side: L R, LFE
Частота : 48,0 КГц
Битовая глубина : 16 бит
Метод сжатия : С потерями
Задержка видео : -744 мс.
Размер потока : 47,3 Мбайт (5%)
Аудио #3
Идентификатор : 189 (0xBD)-130 (0x82)
Формат : AC-3
Формат/Информация : Audio Coding 3
Расширение режима : CM (complete main)
Режим смешивания : DVD-Video
Продолжительность : 17 м.
Вид битрейта : Постоянный
Битрейт : 384 Кбит/сек
Каналы : 6 каналов
Расположение каналов : Front: L C R, Side: L R, LFE
Частота : 48,0 КГц
Битовая глубина : 16 бит
Метод сжатия : С потерями
Задержка видео : -744 мс.
Размер потока : 47,3 Мбайт (5%)
Аудио #4
Идентификатор : 189 (0xBD)-131 (0x83)
Формат : AC-3
Формат/Информация : Audio Coding 3
Расширение режима : CM (complete main)
Режим смешивания : DVD-Video
Продолжительность : 17 м.
Вид битрейта : Постоянный
Битрейт : 384 Кбит/сек
Каналы : 6 каналов
Расположение каналов : Front: L C R, Side: L R, LFE
Частота : 48,0 КГц
Битовая глубина : 16 бит
Метод сжатия : С потерями
Задержка видео : -744 мс.
Размер потока : 47,3 Мбайт (5%)
Аудио #5
Идентификатор : 189 (0xBD)-132 (0x84)
Формат : AC-3
Формат/Информация : Audio Coding 3
Расширение режима : CM (complete main)
Режим смешивания : DVD-Video
Продолжительность : 17 м.
Вид битрейта : Постоянный
Битрейт : 384 Кбит/сек
Каналы : 6 каналов
Расположение каналов : Front: L C R, Side: L R, LFE
Частота : 48,0 КГц
Битовая глубина : 16 бит
Метод сжатия : С потерями
Задержка видео : -744 мс.
Размер потока : 47,3 Мбайт (5%)
Текст #1
Идентификатор : 189 (0xBD)-34 (0x22)
Формат : RLE
Формат/Информация : Run-length encoding
Режим смешивания : DVD-Video
Текст #2
Идентификатор : 189 (0xBD)-39 (0x27)
Формат : RLE
Формат/Информация : Run-length encoding
Режим смешивания : DVD-Video
Текст #3
Идентификатор : 189 (0xBD)-40 (0x28)
Формат : RLE
Формат/Информация : Run-length encoding
Режим смешивания : DVD-Video
Текст #4
Идентификатор : 189 (0xBD)-41 (0x29)
Формат : RLE
Формат/Информация : Run-length encoding
Режим смешивания : DVD-Video

Скриншоты меню

           

Скриншоты фильма

               

Скриншоты доп. материалов

           
-
-
-
-
Other forum [Profile] [PM]
Display posts from previous:    
Reply to topic

The time now is: Today 02:53

All times are GMT + 3 Hours



You cannot post new topics in this forum
You cannot reply to topics in this forum
You cannot edit your posts in this forum
You cannot delete your posts in this forum
You cannot vote in polls in this forum
You cannot attach files in this forum
You cannot download files in this forum