Today is a free download without charge Download

Котик и петушок (Алла Грачева)[1991.,мультфильм, короткометражка] DVDRip

Reply to topic
 
Author
Message

sashau ®

Gender:

Longevity: 8 years 10 months

Posts: 3497

Торрент-статистика

Post 09-Apr-2014 14:05

[Quote]

Котик и петушок - Год выпуска: 1991
Жанр: Детский,мультфильм, короткометражка

Режиссер: Алла Грачева
Роли озвучивали: Людмила Козуб, Н. Белоусова, Людмила Логийко, Владимир КоршунОписание фильма:
Жили в одном доме кот и петух. Кот каждый день уходил на работу, а петушок хозяйничал по дому. Как-то раз, когда кот ушёл на работу и дома остался только петушок, пришла голодная хитрая лиса и украла петушка…
Продолжительность: 00:09:35
Качество видео: DVDRip
Видеокодек: Xvid
Битрейт видео: ~1990 kb/s
Размер кадра: 708x576
Аудио 1: Русский, MP3, 1 ch, 128 kb/s
Аудио 2: Русский, AC3, 2 ch, 192 kb/s
Аудио 3: Украинский, AC3, 2 ch, 192 kb/s

MediaInfo

Видео
Идентификатор : 0
Формат : MPEG-4 Visual
Профиль формата : Advanced [email protected]
Параметр BVOP формата : 2
Параметр QPel формата : Нет
Параметр GMC формата : Без точки перехода
Параметр матрицы формата : Default (H.263)
Режим смешивания : Сжатый битовый поток
Идентификатор кодека : XVID
Идентификатор кодека/Подсказка : XviD
Продолжительность : 9 м. 35 с.
Битрейт : 1990 Кбит/сек
Ширина : 708 пикс.
Высота : 576 пикс.
Соотношение сторон : 1,229
Частота кадров : 25,000 кадр/сек
Цветовое пространство : YUV
Подвыборка цветности : 4:2:0
Битовая глубина : 8 бит
Тип развёртки : Прогрессивная
Метод сжатия : С потерями
Бит/(Пиксели*Кадры) : 0.195
Размер потока : 136 Мбайт (79%)
Библиотека кодирования : XviD 1.2.1 (UTC 2008-12-04)
Аудио #1
Идентификатор : 1
Формат : MPEG Audio
Версия формата : Version 1
Профиль формата : Layer 3
Идентификатор кодека : 55
Идентификатор кодека/Подсказка : MP3
Продолжительность : 9 м. 31 с.
Вид битрейта : Постоянный
Битрейт : 128 Кбит/сек
Канал(ы) : 1 канал
Частота : 48,0 КГц
Метод сжатия : С потерями
Размер потока : 8,72 Мбайт (5%)
Выравнивание : Соединение по промежуткам
Продолжительность промежутка : 40 мс. (1,01 видеокадр)
Время предзагрузки промежутка : 504 ms
Заголовок : rusdublyazh
Библиотека кодирования : LAME3.97
Настройки программы : -m m -V 4 -q 0 -b 128
Аудио #2
Идентификатор : 2
Формат : AC-3
Формат/Информация : Audio Coding 3
Расширение режима : CM (complete main)
Идентификатор кодека : 2000
Продолжительность : 9 м. 35 с.
Вид битрейта : Постоянный
Битрейт : 192 Кбит/сек
Канал(ы) : 2 канала(ов)
Расположение каналов : Front: L R
Частота : 48,0 КГц
Битовая глубина : 16 бит
Метод сжатия : С потерями
Размер потока : 13,2 Мбайт (8%)
Выравнивание : Соединение по промежуткам
Продолжительность промежутка : 40 мс. (1,00 видеокадр)
Время предзагрузки промежутка : 512 ms
Заголовок : ruszakadrom
Аудио #3
Идентификатор : 3
Формат : AC-3
Формат/Информация : Audio Coding 3
Расширение режима : CM (complete main)
Идентификатор кодека : 2000
Продолжительность : 9 м. 34 с.
Вид битрейта : Постоянный
Битрейт : 192 Кбит/сек
Канал(ы) : 2 канала(ов)
Расположение каналов : Front: L R
Частота : 48,0 КГц
Битовая глубина : 16 бит
Метод сжатия : С потерями
Задержка видео : 700 мс.
Размер потока : 13,2 Мбайт (8%)
Выравнивание : Разделение по промежуткам
Продолжительность промежутка : 40 мс. (1,00 видеокадр)
Время предзагрузки промежутка : 500 ms
Заголовок : ukr
Скриншоты:
       
   
Other forum [Profile] [PM]
Display posts from previous:    
Reply to topic

The time now is: Today 05:40

All times are GMT + 3 Hours



You cannot post new topics in this forum
You cannot reply to topics in this forum
You cannot edit your posts in this forum
You cannot delete your posts in this forum
You cannot vote in polls in this forum
You cannot attach files in this forum
You cannot download files in this forum