Today is a free download without charge Download

Шантрапа / Shantrapa (Отар Иоселиани / Otar Iosseliani) [2010, Франция, Грузия, комедия, биография, DVD9] R5 Sub Rus + Original Fre [«Новый Диск»]

Reply to topic
 
Author
Message

nsa1977 ®

Gender:

Longevity: 10 years

Posts: 1470

Location: Пенза

Торрент-статистика

Post 11-Dec-2011 17:14

[Quote]

-Шантрапа / Shantrapa-Страна: Франция, Грузия
Студия: Pierre Grise Productions
Жанр: комедия, биография
Год выпуска: 2010
Мировая премьера: 19 мая 2010
Российская премьера: 21 апреля 2011, «Кино без границ»
Дата выхода DVD: 8 декабря 2011, «Новый Диск»
Продолжительность: 02:01:45
Перевод: Оригинал [Лицензия]
Cубтитры: русские
Оригинальная аудиодорожка: французкий-Режиссер: Отар Иоселиани / Otar Iosseliani-В ролях: Дато Тариелашвили, Богдан Ступка, Гиви Сарчимелидзе, Бюль Ожье, Тамуна Карумидзе, Ника Энделадзе, Лаша Шеварднадзе, Амиран Амиранашвили, Юрий Рост-Описание: Николас — художник- бунтарь, и многие хотели бы заставить его молчать. Идеологи хотят этого, поскольку его работа не согласуется со взглядами системы. В связи с этим, он оставляет свою страну и переезжает во Францию — страну свободы и демократии.
Новая страна встречает его тепло — к счастью, его талант пересек границы! Но очень быстро Николас сталкивается с другими препятствиями. Здесь нет идеологов, только «дружелюбные» бизнесмены, которые объясняют ему, что его работа мало кому интересна или не интересна вовсе. Что ж, его работы не способны приносить прибыль. Но кто же такой Николас? Художник, который жаждет самовыражения? Человек, который просто хочет получать деньги за свою работу? Николас — не непризнанный гений и не опасный революционер. Он простой и тихий по жизни, свободный человек, независимо от обстоятельств. Возможно, это и есть источник его мучений…
-Бонусы: Биография создателей и исполнителей, Трейлеры- --Качество: DVD9 R5
Формат: DVD-Video
Видео кодек: MPEG2
Аудио кодек: AC3
Видео: PAL 16:9 (720x576(0.656)) MPEG Video, 25,000 кадр/сек, 6805 Кбит/сек
Аудио #1: Russian (Dolby AC3, 2 ch) 192 Кбит/сек, 48,0 КГц
Аудио #2: Francais (Dolby AC3, 2 ch) 192 Кбит/сек, 48,0 КГц--

DVDInfo

Title:
Size: 7.19 Gb ( 7 538 358 KBytes ) - DVD-9
Enabled regions: 1, 2, 3, 4, 5, 6, 7, 8
VTS_01 :
Play Length: 00:00:15
Video: PAL 4:3 (720x576) VBR
Audio:
Not specified (Dolby AC3, 2 ch)
VTS_02 :
Play Length: 00:00:08
Video: PAL 16:9 (720x576) VBR, Auto Pan&Scan
Audio:
Not specified (Dolby AC3, 2 ch)
VTS_03 :
Play Length: 00:00:09
Video: PAL 16:9 (720x576) VBR, Auto Pan&Scan
Audio:
Not specified (Dolby AC3, 2 ch)
VTS_04 :
Play Length: 00:00:15
Video: PAL 4:3 (720x576) VBR
Audio:
Not specified (Dolby AC3, 2 ch)
VTS_05 :
Play Length: 00:00:15
Video: PAL 16:9 (720x576) VBR, Auto Pan&Scan
Audio:
Not specified (Dolby AC3, 2 ch)
VTS_06 :
Play Length: 00:00:20
Video: PAL 16:9 (720x576) VBR, Auto Pan&Scan
Audio:
Not specified (Dolby AC3, 2 ch)
VTS_07 :
Play Length: 00:01:48
Video: PAL 16:9 (720x576) VBR, Auto Pan&Scan
Audio:
Not specified (Dolby AC3, 2 ch)
VTS_08 :
Play Length: 00:01:55
Video: PAL 16:9 (720x576) VBR, Auto Pan&Scan
Audio:
Not specified (Dolby AC3, 2 ch)
VTS_09 :
Play Length: 00:01:07
Video: PAL 4:3 (720x576) VBR
Audio:
Not specified (Dolby AC3, 2 ch)
VTS_10 :
Play Length: 00:02:23
Video: PAL 16:9 (720x576) VBR, Auto Pan&Scan
Audio:
Not specified (Dolby AC3, 2 ch)
VTS_11 :
Play Length: 00:02:31
Video: PAL 16:9 (720x576) VBR, Auto Pan&Scan
Audio:
Not specified (Dolby AC3, 2 ch)
VTS_12 :
Play Length: 00:01:32
Video: PAL 4:3 (720x576) VBR
Audio:
Not specified (Dolby AC3, 2 ch)
VTS_13 :
Play Length: 00:02:18
Video: PAL 16:9 (720x576) VBR, Auto Pan&Scan
Audio:
Not specified (Dolby AC3, 2 ch)
VTS_14 :
Play Length: 00:01:32
Video: PAL 4:3 (720x576) VBR
Audio:
Not specified (Dolby AC3, 2 ch)
VTS_15 :
Play Length: 00:01:56
Video: PAL 16:9 (720x576) VBR, Auto Pan&Scan
Audio:
Not specified (Dolby AC3, 2 ch)
VTS_16 :
Play Length: 00:02:36
Video: PAL 4:3 (720x576) VBR
Audio:
Not specified (Dolby AC3, 2 ch)
VTS_17 :
Play Length: 00:01:53
Video: PAL 4:3 (720x576) VBR
Audio:
Not specified (Dolby AC3, 2 ch)
VTS_18 :
Play Length: 00:02:06
Video: PAL 16:9 (720x576) VBR, Auto Pan&Scan
Audio:
Not specified (Dolby AC3, 2 ch)
VTS_19 :
Play Length: 00:02:15
Video: PAL 16:9 (720x576) VBR, Auto Pan&Scan
Audio:
Not specified (Dolby AC3, 2 ch)
VTS_20 :
Play Length: 00:01:29
Video: PAL 4:3 (720x576) VBR
Audio:
Not specified (Dolby AC3, 2 ch)
VTS_21 :
Play Length: 00:02:16
Video: PAL 16:9 (720x576) VBR, Auto Pan&Scan
Audio:
Not specified (Dolby AC3, 2 ch)
VTS_22 :
Play Length: 00:00:54
Video: PAL 16:9 (720x576) VBR, Auto Pan&Scan
Audio:
Not specified (Dolby AC3, 2 ch)
VTS_23 :
Play Length: 02:01:45
Video: PAL 16:9 (720x576) VBR, Auto Pan&Scan
Audio:
Russian (Dolby AC3, 2 ch)
Francais (Dolby AC3, 2 ch)
Subtitles:
Russian

MediaInfo

Общее
Полное имя : G:\Новинки 2011\Shantrapa.2010.DVD9\VIDEO_TS\VTS_23_1.VOB
Формат : MPEG-PS
Размер файла : 1024 Мбайт
Продолжительность : 19 м.
Общий поток : 7335 Кбит/сек
Библиотека кодирования : encoded by TMPGEnc 4.0 XPress Version. 4.7.4.299
Видео
Идентификатор : 224 (0xE0)
Формат : MPEG Video
Версия формата : Version 2
Профиль формата : [email protected]
Параметр BVOP формата : Да
Параметр матрицы формата : Выборочная
Параметр GOP формата : M=3, N=13
Продолжительность : 19 м.
Вид битрейта : Переменный
Битрейт : 6805 Кбит/сек
Максимальный битрейт : 9200 Кбит/сек
Ширина : 720 пикселей
Высота : 576 пикселей
Соотношение сторон : 16:9
Частота кадров : 25,000 кадров/сек
Стандарт вещания : PAL
Цветовое пространство : YUV
Субдискретизация насыщенности : 4:2:0
Битовая глубина : 8 бит
Тип развёртки : Чересстрочная
Порядок развёртки : Верхнее поле первое
Метод сжатия : С потерями
Бит/(Пиксели*Кадры) : 0.656
Размер потока : 950 Мбайт (93%)
Библиотека кодирования : TMPGEnc XPress 4.7.4.299
Аудио #1
Идентификатор : 189 (0xBD)-128 (0x80)
Формат : AC-3
Формат/Информация : Audio Coding 3
Расширение режима : CM (complete main)
Режим смешивания : DVD-Video
Продолжительность : 19 м.
Вид битрейта : Постоянный
Битрейт : 192 Кбит/сек
Каналы : 2 канала
Расположение каналов : Front: L R
Частота : 48,0 КГц
Битовая глубина : 16 бит
Метод сжатия : С потерями
Размер потока : 26,8 Мбайт (3%)
Аудио #2
Идентификатор : 189 (0xBD)-129 (0x81)
Формат : AC-3
Формат/Информация : Audio Coding 3
Расширение режима : CM (complete main)
Режим смешивания : DVD-Video
Продолжительность : 19 м.
Вид битрейта : Постоянный
Битрейт : 192 Кбит/сек
Каналы : 2 канала
Расположение каналов : Front: L R
Частота : 48,0 КГц
Битовая глубина : 16 бит
Метод сжатия : С потерями
Размер потока : 26,8 Мбайт (3%)

Скриншоты меню

       

Скриншоты фильма

       
       

Скриншоты доп. материалов

     
     
--Релиз группы:

_________________
Other forum [Profile] [PM]

Dracula

Longevity: 7 years 6 months

Posts: 11224

Торрент-статистика

Post 18-Dec-2011 14:11 (after 6 days)

Топик был перенесен из форума Фильмы 2006-2010 в форум Зарубежное кино (DVD)

sassad
 
Display posts from previous:    
Reply to topic

The time now is: Today 18:33

All times are GMT + 3 Hours



You cannot post new topics in this forum
You cannot reply to topics in this forum
You cannot edit your posts in this forum
You cannot delete your posts in this forum
You cannot vote in polls in this forum
You cannot attach files in this forum
You cannot download files in this forum