Today is a free download without charge Download

Ванька Грозный (Дмитрий Петрунь) [2008 г., Комедия, DVD5]

Reply to topic
 
Author
Message

Шкипер ®

Gender:

Longevity: 7 years 6 months

Posts: 1

Торрент-статистика

Post 07-Apr-2014 20:06

[Quote]

Ванька Грозный-- Год выпуска: 2008
Страна: Россия
Жанр: Комедия
Перевод: Не требуется
Режиссер: Дмитрий Петрунь
Продюссер: Илья Папернов
Премьера в мире: 2 января 2009

В ролях: Денис Бондарков, Юрий Горбач, Андрей Казаков, Ирина Пегова, Семен Фурман, Игорь Ясулович
Описание:
В жизни бизнесмена Егора Будылина наступила черная полоса – ни работа, ни личная жизнь не ладятся. Тут-то судьба и дает ему шанс изменить свою жизнь. На проселочной дороге иномарка Егора сталкивается с… трактором местного колхозника Ивана! Деревенский пьяница оказывается похож на предпринимателя как брат-близнец, и Егору в голову приходит безумная идея. Он хочет убежать от своих неудач и пожить немного деревенской жизнью, поэтому подговаривает Ивана на время поменяться местами.Поначалу все идет как нельзя лучше. Прямодушному трактористу удается решить все проблемы в бизнесе, снова стать любимым "мужем" и заботливым "отцом". Егор не менее успешно справляется с ролью деревенского жителя – бросает пить, плодотворно работает и завоевывает сердце местной красавицы Зинки. Проблемы начинаются, когда настает время возвращать все на свои места.
Качество: DVD5
Формат: DVD Video
Видео кодек: MPEG2
Аудио кодек: AC3
Видео: PAL 4:3 (720 х [email protected] х 576) VBR
Аудио: Dolby AC3, 2 ch

MediaInfo:

Общее
Полное имя : F:\Vanka.Groznij.2008.DVD-5\VIDEO_TS\VTS_01_3.VOB
Формат : MPEG-PS
Размер файла : 1000 Мбайт
Продолжительность : 22 м.
Общий поток : 6283 Кбит/сек
Видео
Идентификатор : 224 (0xE0)
Формат : MPEG Video
Версия формата : Version 2
Профиль формата : [email protected]
Параметр BVOP формата : Да
Параметр матрицы формата : По умолчанию
Параметры GOP формата : M=3, N=18
Продолжительность : 22 м.
Вид битрейта : Переменный
Битрейт : 5966 Кбит/сек
Номинальный битрейт : 6300 Кбит/сек
Ширина : 768 пикс.
Высота : 576 пикс.
Соотношение сторон : 4:3
Частота кадров : 25,000 кадр/сек
Стандарт вещания : PAL
Цветовое пространство : YUV
Подвыборка цветности : 4:2:0
Битовая глубина : 8 бит
Тип развёртки : Прогрессивная
Метод сжатия : С потерями
Бит/(Пиксели*Кадры) : 0.575
Размер потока : 950 Мбайт (95%)
Аудио
Идентификатор : 189 (0xBD)-128 (0x80)
Формат : AC-3
Формат/Информация : Audio Coding 3
Расширение режима : CM (complete main)
Режим смешивания : DVD-Video
Продолжительность : 22 м.
Вид битрейта : Постоянный
Битрейт : 192 Кбит/сек
Каналы : 2 канала
Расположение каналов : Front: L R
Частота : 48,0 КГц
Битовая глубина : 16 бит
Метод сжатия : С потерями
Задержка видео : -272 мс.
Размер потока : 30,6 Мбайт (3%)
Меню

DVDInfo:

Title: Vanka.Groznij.2008.DVD-5
Size: 4.17 Gb ( 4 372 498,00 KBytes ) - DVD-5
Enabled regions: 1, 2, 3, 4, 5, 6, 7, 8
VTS_01 :
Play Length: 01:31:14+00:03:59
Video: PAL 4:3 (768x576) VBR, Letterboxed
Audio:
English (Dolby AC3, 2 ch)
* Menus Information *
VIDEO_TS Menu
Video:
PAL 4:3 (720 х 576) VBR
Letterboxed
English Language Unit :
Title Menu
VTS_01 Menu
Video:
PAL 4:3 (720 х 576) VBR
English Language Unit :
Root Menu

Дополнительная информация:

Дополнительные материалы: отсутствуют
Меню: на русском языке
Скриншоты        
Other forum [Profile] [PM]

Omen

Longevity: 8 years 10 months

Posts: 181086

Торрент-статистика

Post 07-Apr-2014 20:22 (after 15 minutes)

[Quote]

Шкипер, дружище, читай правила... там все сказано.
Other forum [Profile] [PM]

cergo

Gender:

Longevity: 9 years 4 months

Posts: 80

Нарушений: 2

Location: Стерлитамак-Сити

Торрент-статистика

Post 08-Apr-2014 17:57 (after 21 hour)

[Quote]

в DVDInfo: скрины заявлены

а в реале 768x576 ... непорядочеГ

_________________
Other forum [Profile] [PM]

KirovSOFT

Gender:

Longevity: 9 years 5 months

Posts: 998

Location: Кировская область -Оричи

Торрент-статистика

Post 09-Apr-2014 20:56 (after 1 day 2 hours)

[Quote]

я поправил

_________________
Other forum [Profile] [PM]
Display posts from previous:    
Reply to topic

The time now is: Today 00:10

All times are GMT + 3 Hours



You cannot post new topics in this forum
You cannot reply to topics in this forum
You cannot edit your posts in this forum
You cannot delete your posts in this forum
You cannot vote in polls in this forum
You cannot attach files in this forum
You cannot download files in this forum