Today is a free download without charge Download

Куда летишь, Витар? (Владимир Полковников)[1972.,мультфильм, короткометражка] SATRip

Reply to topic
 
Author
Message

sashau ®

Gender:

Longevity: 8 years 10 months

Posts: 3497

Торрент-статистика

Post 06-Apr-2014 10:37

[Quote]

Куда летишь, Витар? - Год выпуска: 1972
Жанр: Детский,мультфильм, короткометражка
Режиссер: Владимир Полковников
Роли озвучивали: Анатолий Кубацкий, Анатолий Папанов, Алексей Грибов, Тамара Дмитриева, Мария ВиноградоваОписание фильма:
О приключениях профессора по птичьим делам и мальчике, отправившимся в путешествие для изучения птиц.

Продолжительность: 00:17:17
Качество видео: SATRip
Видеокодек: Xvid
Битрейт видео: ~2514 kb/s
Размер кадра: 720x576
Аудиокодек: MP3, 2 ch
Битрейт аудио: 128 kb/s

MediaInfo

Видео
Идентификатор : 0
Формат : MPEG-4 Visual
Профиль формата : [email protected]
Параметр BVOP формата : Нет
Параметр QPel формата : Нет
Параметр GMC формата : Без точки перехода
Параметр матрицы формата : Default (H.263)
Идентификатор кодека : XVID
Идентификатор кодека/Подсказка : XviD
Продолжительность : 17 м.
Битрейт : 2514 Кбит/сек
Ширина : 720 пикс.
Высота : 576 пикс.
Соотношение сторон : 5:4
Частота кадров : 25,000 кадр/сек
Стандарт вещания : PAL
Цветовое пространство : YUV
Подвыборка цветности : 4:2:0
Битовая глубина : 8 бит
Тип развёртки : Прогрессивная
Метод сжатия : С потерями
Бит/(Пиксели*Кадры) : 0.242
Размер потока : 311 Мбайт (95%)
Библиотека кодирования : ZJMedia MPEG Encoder
Аудио
Идентификатор : 1
Формат : MPEG Audio
Версия формата : Version 1
Профиль формата : Layer 3
Режим : Joint stereo
Расширение режима : MS Stereo
Идентификатор кодека : 55
Идентификатор кодека/Подсказка : MP3
Продолжительность : 17 м.
Вид битрейта : Постоянный
Битрейт : 128 Кбит/сек
Канал(ы) : 2 канала(ов)
Частота : 44,1 КГц
Метод сжатия : С потерями
Размер потока : 15,8 Мбайт (5%)
Выравнивание : Разделение по промежуткам
Продолжительность промежутка : 999 мс. (24,98 видеокадров)
Время предзагрузки промежутка : 750 ms
Скриншоты:
       
   
Other forum [Profile] [PM]
Display posts from previous:    
Reply to topic

The time now is: Today 16:50

All times are GMT + 3 Hours



You cannot post new topics in this forum
You cannot reply to topics in this forum
You cannot edit your posts in this forum
You cannot delete your posts in this forum
You cannot vote in polls in this forum
You cannot attach files in this forum
You cannot download files in this forum