Today is a free download without charge Download

Куда пропала луна? (Евгений Ларченко)[1982.,Детский,мультфильм, короткометражка] DVDRip

Reply to topic
 
Author
Message

sashau ®

Gender:

Longevity: 8 years 10 months

Posts: 3497

Торрент-статистика

Post 06-Apr-2014 10:34

[Quote]

Куда пропала луна? - Год выпуска: 1982
Жанр: Детский,мультфильм, короткометражка
Режиссер: Евгений Ларченко
Роли озвучивали: Виктор Тарасов, Вера Кавалерова, Георгий Сичкарь, Иван МацкевичОписание фильма:
Однажды маленький лисенок не увидел на небе луны, с которой он любил играть. Никто в лесу не мог объяснить ему что же произошло с луной, пока не родился молодой месяц и сказка снова ожила.

Продолжительность: 00:08:37
Качество видео: DVDRip
Видеокодек: Xvid
Битрейт видео: ~656 kb/s
Размер кадра: 704x528
Аудиокодек: MP3, 2 ch
Битрейт аудио: 128 kb/s

MediaInfo

Видео
Идентификатор : 0
Формат : MPEG-4 Visual
Профиль формата : Advanced [email protected]
Параметр BVOP формата : 1
Параметр QPel формата : Нет
Параметр GMC формата : Без точки перехода
Параметр матрицы формата : Выборочная
Идентификатор кодека : XVID
Идентификатор кодека/Подсказка : XviD
Продолжительность : 8 м. 37 с.
Битрейт : 656 Кбит/сек
Ширина : 704 пикс.
Высота : 528 пикс.
Соотношение сторон : 4:3
Частота кадров : 25,000 кадр/сек
Цветовое пространство : YUV
Подвыборка цветности : 4:2:0
Битовая глубина : 8 бит
Тип развёртки : Прогрессивная
Метод сжатия : С потерями
Бит/(Пиксели*Кадры) : 0.071
Размер потока : 40,4 Мбайт (83%)
Библиотека кодирования : XviD 1.2.0.dev47 (UTC 2006-11-01)
Аудио
Идентификатор : 1
Формат : MPEG Audio
Версия формата : Version 1
Профиль формата : Layer 3
Режим : Joint stereo
Расширение режима : MS Stereo
Идентификатор кодека : 55
Идентификатор кодека/Подсказка : MP3
Продолжительность : 8 м. 37 с.
Вид битрейта : Постоянный
Битрейт : 128 Кбит/сек
Канал(ы) : 2 канала(ов)
Частота : 48,0 КГц
Метод сжатия : С потерями
Размер потока : 7,89 Мбайт (16%)
Выравнивание : Соединение по промежуткам
Продолжительность промежутка : 40 мс. (1,00 видеокадр)
Время предзагрузки промежутка : 504 ms
Библиотека кодирования : LAME3.97
Скриншоты:
       
   
Other forum [Profile] [PM]
Display posts from previous:    
Reply to topic

The time now is: Today 03:10

All times are GMT + 3 Hours



You cannot post new topics in this forum
You cannot reply to topics in this forum
You cannot edit your posts in this forum
You cannot delete your posts in this forum
You cannot vote in polls in this forum
You cannot attach files in this forum
You cannot download files in this forum