Today is a free download without charge Download

Легенда о злом великане ( Иван Иванов-Вано, Владимир Данилевич)[1967.,мультфильм, короткометражка,Кукольный, Детский] DVDRip

Reply to topic
 
Author
Message

sashau ®

Gender:

Longevity: 8 years 10 months

Posts: 3497

Торрент-статистика

Post 06-Apr-2014 10:30

[Quote]

Легенда о злом великане - Год выпуска: 1967
Жанр: Кукольный, Детский,мультфильм, короткометражка
Режиссер: Иван Иванов-Вано, Владимир Данилевич
Роли озвучивали: Дмитрий Журавлев, Анатолий ПапановОписание фильма:
О рыбаке, который выпустил на свободу жестокого и коварного джинна.

Продолжительность: 00:09:51
Качество видео: DVDRip
Видеокодек: Xvid
Битрейт видео: ~1643 kb/s
Размер кадра: 705x564
Аудиокодек: AC3, 1 ch
Битрейт аудио: 192 kb/s

MediaInfo

Видео
Идентификатор : 0
Формат : MPEG-4 Visual
Профиль формата : Advanced [email protected]
Параметр BVOP формата : 2
Параметр QPel формата : Нет
Параметр GMC формата : Без точки перехода
Параметр матрицы формата : Default (H.263)
Режим смешивания : Сжатый битовый поток
Идентификатор кодека : XVID
Идентификатор кодека/Подсказка : XviD
Продолжительность : 9 м. 51 с.
Битрейт : 1643 Кбит/сек
Ширина : 705 пикс.
Высота : 564 пикс.
Соотношение сторон : 1,223
Частота кадров : 25,000 кадр/сек
Цветовое пространство : YUV
Подвыборка цветности : 4:2:0
Битовая глубина : 8 бит
Тип развёртки : Прогрессивная
Метод сжатия : С потерями
Бит/(Пиксели*Кадры) : 0.169
Размер потока : 116 Мбайт (89%)
Библиотека кодирования : XviD 1.2.1 (UTC 2008-12-04)
Аудио
Идентификатор : 1
Формат : AC-3
Формат/Информация : Audio Coding 3
Расширение режима : CM (complete main)
Идентификатор кодека : 2000
Продолжительность : 9 м. 51 с.
Вид битрейта : Постоянный
Битрейт : 192 Кбит/сек
Канал(ы) : 1 канал
Расположение каналов : Front: C
Частота : 48,0 КГц
Битовая глубина : 16 бит
Метод сжатия : С потерями
Размер потока : 13,5 Мбайт (10%)
Выравнивание : Соединение по промежуткам
Продолжительность промежутка : 40 мс. (1,00 видеокадр)
Время предзагрузки промежутка : 512 ms
Скриншоты:
       
   
Other forum [Profile] [PM]
Similar theme
Forum Topic Author Torrent Replies Last Post
./templates/default/images/folder_dl.gif Зарубежные сериалы Легендарный квест: Пир ворона / Мистический квест: Пир ворона / Mythic Quest: Raven's Banquet (2020) WEB-DLRip [H.264/1080p] (сезон 1, серии 1-9 из 9) LostFilm Soldat_5
1 | 0

0 | 3569

1

2020-03-18 14:33
Soldat_5 Latest
Display posts from previous:    
Reply to topic

The time now is: Today 18:44

All times are GMT + 3 Hours



You cannot post new topics in this forum
You cannot reply to topics in this forum
You cannot edit your posts in this forum
You cannot delete your posts in this forum
You cannot vote in polls in this forum
You cannot attach files in this forum
You cannot download files in this forum