Today is a free download without charge Download

Легок на помине ( Евгений Абызов) [2014, Комедия, Фантастика] BDRip [720p]

Reply to topic
 
Author
Message

Omen ®

Longevity: 8 years 10 months

Posts: 181086

Торрент-статистика

Post 05-Apr-2014 11:40

[Quote]

Легок на помине - Год выпуска: 2014
Производство: Россия | Enjoy Movies
Жанр: Комедия, Фантастика
Перевод: Не требуется (русский) [Лицензия]
Субтитры: Отсутствуют
Дата мировой премьеры: 20 февраля 2014
Дата российской премьеры: 27 февраля 2014, «Каропрокат»
Дата выхода DVD релиза: 8 апреля 2014, «Lizard Cinema Trade»
Дата выхода Blu-Ray релиза: 8 апреля 2014, «Lizard Cinema Trade»
Режиссер: Евгений Абызов
Продюсер: Георгий Малков, Сарик Андреасян, Гевонд Андреасян
Актеры: Гарик Харламов, Кристина Асмус, Екатерина Васильева, Александр Ревва, Татьяна Космачева, Владимир Яглыч, Сергей Сафронов, Юрий Кузнецов, Анна Антонова, Александр Самойленко ...
Описание фильма:
Молодому и успешному риелтору Павлу, провернувшему немало полулегальных сделок, необходимо получить доверенность на куплю-продажу старинного поместья. А для этого втереться в доверие к владелице недвижимости, одинокой старушке, доживающей свои дни в родовом гнезде. Разработав хитрый план, риелтор-аферист получает заветную бумагу и начинает готовить поместье к продаже, празднуя очередную победу. Но не тут-то было! В отлаженный ход событий вмешиваются высшие силы. С наступлением темноты с Павлом происходят необъяснимые события — он внезапно начинает перемещаться в пространстве…

Продолжительность: 01:22:16
Качество видео: BDRip 720p
Видеокодек: MPEG-4 AVC/H.264
Битрейт видео: ~ 4551 Кбит/сек
Размер кадра: 1280 x 536 (2.388) at 24.000 fps : 0.276 Bits/Pixel
Аудио: DTS 768 Кбит/сек (6ch), 48,0 КГц, 16 бит [Русский, Оригинал]

Трейлер / Ролик

Ошибки в фильме

• На 57-й минуте главная героиня Лиза называет Пашу Игорем (это настоящее имя Гарика Харламова).

MediaInfo:

Код:
Уникальный идентификатор                 : 218400929706529523377817856850217237059 (0xA44E7D31C01DD4739C7ADF9BEE757A43)
Полное имя                               : F:\Legok.na.pomine.2014.O.BDRip.720p.mkv
Формат                                   : Matroska
Версия формата                           : Version 2
Размер файла                             : 3,12 Гбайт
Продолжительность                        : 1 ч. 22 м.
Общий поток                              : 5427 Кбит/сек
Дата кодирования                         : UTC 2014-04-04 19:04:49
Программа кодирования                    : mkvmerge v6.8.0 ('Theme for Great Cities') 64bit built on Mar  2 2014 21:34:26
Библиотека кодирования                   : libebml v1.3.0 + libmatroska v1.4.1
Видео
Идентификатор                            : 1
Формат                                   : AVC
Формат/Информация                        : Advanced Video Codec
Профиль формата                          : [url=mailto:[email protected]][email protected][/url]
Параметр CABAC формата                   : Да
Параметр ReFrames формата                : 4 кадра
Идентификатор кодека                     : V_MPEG4/ISO/AVC
Продолжительность                        : 1 ч. 22 м.
Битрейт                                  : 4551 Кбит/сек
Ширина                                   : 1280 пикселей
Высота                                   : 536 пикселей
Соотношение сторон                       : 2,40:1
Режим частоты кадров                     : Постоянный
Частота кадров                           : 24,000 кадра/сек
Цветовое пространство                    : YUV
Субдискретизация насыщенности            : 4:2:0
Битовая глубина                          : 8 бит
Тип развёртки                            : Прогрессивная
Бит/(Пиксели*Кадры)                      : 0.276
Размер потока                            : 2,62 Гбайт (84%)
Библиотека кодирования                   : x264 core 142 r2409+42 04be48a tMod [[email protected] X86_64]
Настройки программы                      : cabac=1 / ref=4 / deblock=1:0:0 / analyse=0x3:0x133 / me=hex / subme=2 / psy=1 / fade_compensate=0.00 / psy_rd=1.00:0.00 / mixed_ref=1 / me_range=16 / chroma_me=1 / trellis=2 / 8x8dct=1 / cqm=0 / deadzone=21,11 / fast_pskip=0 / chroma_qp_offset=0 / threads=12 / lookahead_threads=4 / sliced_threads=0 / nr=0 / decimate=1 / interlaced=0 / bluray_compat=0 / constrained_intra=0 / fgo=0 / bframes=2 / b_pyramid=2 / b_adapt=2 / b_bias=0 / direct=1 / weightb=1 / open_gop=0 / weightp=2 / keyint=240 / keyint_min=24 / scenecut=40 / intra_refresh=0 / rc=crf / mbtree=0 / crf=17.0000 / qcomp=0.60 / qpmin=0:0:0 / qpmax=69:69:69 / qpstep=4 / ip_ratio=1.40 / pb_ratio=1.30 / aq=1:1.00 / aq-sensitivity=10.00 / aq-factor=1.00:1.00:1.00 / aq2=0 / aq3=0
Язык                                     : English
Default                                  : Да
Forced                                   : Нет
Аудио
Идентификатор                            : 2
Формат                                   : DTS
Формат/Информация                        : Digital Theater Systems
Режим                                    : 16
Параметр Endianness формата              : Big
Идентификатор кодека                     : A_DTS
Продолжительность                        : 1 ч. 22 м.
Вид битрейта                             : Постоянный
Битрейт                                  : 768 Кбит/сек
Каналы                                   : 6 каналов
Расположение каналов                     : Front: L C R, Side: L R, LFE
Частота                                  : 48,0 КГц
Битовая глубина                          : 16 бит
Метод сжатия                             : С потерями
Размер потока                            : 452 Мбайт (14%)
Язык                                     : Russian
Default                                  : Да
Forced                                   : Нет
Скриншоты:

         
         

-
Other forum [Profile] [PM]
Display posts from previous:    
Reply to topic

The time now is: Today 12:56

All times are GMT + 3 Hours



You cannot post new topics in this forum
You cannot reply to topics in this forum
You cannot edit your posts in this forum
You cannot delete your posts in this forum
You cannot vote in polls in this forum
You cannot attach files in this forum
You cannot download files in this forum