Today is a free download without charge Download

Лисичка со скалочкой (Борис Храневич)[1977.,Детский] DVDRip

Reply to topic
 
Author
Message

sashau ®

Gender:

Longevity: 8 years 10 months

Posts: 3497

Торрент-статистика

Post 03-Apr-2014 18:05

[Quote]

Лисичка со скалочкой - Год выпуска: 1977
Жанр: Детский
Режиссер: Борис ХраневичОписание фильма:
По мотивам народной сказки о хитрой лисице, которая, задумав провести всех, сама попала в расставленную ею ловушку.

Продолжительность: 00:09:26
Качество видео: DVDRip
Видеокодек: Xvid
Битрейт видео: ~1351 kb/s
Размер кадра: 720x576
Аудиокодек: MP3, 2 ch
Битрейт аудио: 123 kb/s

MediaInfo

Видео
Идентификатор : 0
Формат : MPEG-4 Visual
Профиль формата : Advanced [email protected]
Параметр BVOP формата : 4
Параметр QPel формата : Нет
Параметр GMC формата : Без точки перехода
Параметр матрицы формата : Default (MPEG)
Режим смешивания : Сжатый битовый поток
Идентификатор кодека : XVID
Идентификатор кодека/Подсказка : XviD
Продолжительность : 9 м. 26 с.
Битрейт : 1351 Кбит/сек
Ширина : 720 пикс.
Высота : 576 пикс.
Соотношение сторон : 5:4
Частота кадров : 25,000 кадр/сек
Стандарт вещания : PAL
Цветовое пространство : YUV
Подвыборка цветности : 4:2:0
Битовая глубина : 8 бит
Тип развёртки : Прогрессивная
Метод сжатия : С потерями
Бит/(Пиксели*Кадры) : 0.130
Размер потока : 91,3 Мбайт (91%)
Библиотека кодирования : XviD 1.1.0 (UTC 2005-11-22)
Аудио
Идентификатор : 1
Формат : MPEG Audio
Версия формата : Version 1
Профиль формата : Layer 3
Режим : Joint stereo
Расширение режима : MS Stereo
Идентификатор кодека : 55
Идентификатор кодека/Подсказка : MP3
Продолжительность : 9 м. 26 с.
Вид битрейта : Переменный
Битрейт : 123 Кбит/сек
Канал(ы) : 2 канала(ов)
Частота : 48,0 КГц
Метод сжатия : С потерями
Размер потока : 8,34 Мбайт (8%)
Выравнивание : Разделение по промежуткам
Продолжительность промежутка : 38 мс. (0,95 видеокадр)
Время предзагрузки промежутка : 518 ms
Библиотека кодирования : LAME3.96.1
Скриншоты:
       
   
Other forum [Profile] [PM]
Display posts from previous:    
Reply to topic

The time now is: Today 03:40

All times are GMT + 3 Hours



You cannot post new topics in this forum
You cannot reply to topics in this forum
You cannot edit your posts in this forum
You cannot delete your posts in this forum
You cannot vote in polls in this forum
You cannot attach files in this forum
You cannot download files in this forum