Today is a free download without charge Download

Лягушка Пипа (Борис Акулиничев)[1992.,Детский] SATRip

Reply to topic
 
Author
Message

sashau ®

Gender:

Longevity: 8 years 10 months

Posts: 3497

Торрент-статистика

Post 03-Apr-2014 17:58

[Quote]

Лягушка Пипа - Год выпуска: 1992
Жанр: Детский
Режиссер: Борис Акулиничев
Роли озвучивали: Людмила Ильина, Игорь ВерникОписание фильма:
О лягушке-фантазерке, которая вообразила себя медведем, о ее встрече с охотником на медведей и тех приключениях, которые с ними произошли.
Продолжительность: 00:04:11
Качество видео: SATRip
Видеокодек: Xvid
Битрейт видео: ~1150 kb/s
Размер кадра: 678x558
Аудиокодек: MP3, 2 ch
Битрейт аудио: 128 kb/s

MediaInfo

Видео
Идентификатор : 0
Формат : MPEG-4 Visual
Профиль формата : Advanced [email protected]
Параметр BVOP формата : 2
Параметр QPel формата : Нет
Параметр GMC формата : Без точки перехода
Параметр матрицы формата : Default (H.263)
Режим смешивания : Сжатый битовый поток
Идентификатор кодека : XVID
Идентификатор кодека/Подсказка : XviD
Продолжительность : 4 м. 11 с.
Битрейт : 1150 Кбит/сек
Ширина : 678 пикс.
Высота : 558 пикс.
Соотношение сторон : 1,215
Частота кадров : 25,000 кадр/сек
Цветовое пространство : YUV
Подвыборка цветности : 4:2:0
Битовая глубина : 8 бит
Тип развёртки : Прогрессивная
Метод сжатия : С потерями
Бит/(Пиксели*Кадры) : 0.122
Размер потока : 34,5 Мбайт (89%)
Библиотека кодирования : XviD 1.2.0.dev47 (UTC 2006-11-01)
Аудио
Идентификатор : 1
Формат : MPEG Audio
Версия формата : Version 1
Профиль формата : Layer 3
Режим : Joint stereo
Идентификатор кодека : 55
Идентификатор кодека/Подсказка : MP3
Продолжительность : 4 м. 11 с.
Вид битрейта : Постоянный
Битрейт : 128 Кбит/сек
Канал(ы) : 2 канала(ов)
Частота : 44,1 КГц
Метод сжатия : С потерями
Размер потока : 3,83 Мбайт (10%)
Выравнивание : Разделение по промежуткам
Продолжительность промежутка : 40 мс. (1,00 видеокадр)
Время предзагрузки промежутка : 500 ms
Скриншоты:
       
 
Other forum [Profile] [PM]
Display posts from previous:    
Reply to topic

The time now is: Today 13:44

All times are GMT + 3 Hours



You cannot post new topics in this forum
You cannot reply to topics in this forum
You cannot edit your posts in this forum
You cannot delete your posts in this forum
You cannot vote in polls in this forum
You cannot attach files in this forum
You cannot download files in this forum