Today is a free download without charge Download

Лягушонок ищет папу (Роман Качанов)[1964., Кукольный, Детский] DVDRip

Reply to topic
 
Author
Message

sashau ®

Gender:

Longevity: 8 years 10 months

Posts: 3497

Торрент-статистика

Post 03-Apr-2014 17:54

[Quote]

Лягушонок ищет папу - Год выпуска: 1964
Жанр: Кукольный, Детский

Режиссер: Роман Качанов
Роли озвучивали: Рина Зеленая, Эраст Гарин, Михаил Яншин, Клара Румянова, Анатолий Папанов, Владимир ГерцикОписание фильма:
Так и не смог лягушонок найти своего папу и тогда он решил стать папой для того, кто еще меньше и слабее.
Продолжительность: 00:08:58
Качество видео: DVDRip
Видеокодек: Xvid
Битрейт видео: ~2640 kb/s
Размер кадра: 692x520
Аудиокодек: AC3, 2 ch
Битрейт аудио: 448 kb/s

MediaInfo

Видео
Идентификатор : 0
Формат : MPEG-4 Visual
Профиль формата : Advanced [email protected]
Параметр BVOP формата : 2
Параметр QPel формата : Нет
Параметр GMC формата : Без точки перехода
Параметр матрицы формата : Default (H.263)
Режим смешивания : Сжатый битовый поток
Идентификатор кодека : XVID
Идентификатор кодека/Подсказка : XviD
Продолжительность : 8 м. 58 с.
Битрейт : 2640 Кбит/сек
Ширина : 692 пикс.
Высота : 520 пикс.
Соотношение сторон : 4:3
Частота кадров : 25,000 кадр/сек
Цветовое пространство : YUV
Подвыборка цветности : 4:2:0
Битовая глубина : 8 бит
Тип развёртки : Прогрессивная
Метод сжатия : С потерями
Бит/(Пиксели*Кадры) : 0.293
Размер потока : 170 Мбайт (85%)
Библиотека кодирования : XviD 1.2.0.dev47 (UTC 2006-11-01)
Аудио
Идентификатор : 1
Формат : AC-3
Формат/Информация : Audio Coding 3
Расширение режима : CM (complete main)
Идентификатор кодека : 2000
Продолжительность : 8 м. 58 с.
Вид битрейта : Постоянный
Битрейт : 448 Кбит/сек
Канал(ы) : 2 канала(ов)
Расположение каналов : Front: L R
Частота : 48,0 КГц
Битовая глубина : 16 бит
Метод сжатия : С потерями
Размер потока : 28,8 Мбайт (14%)
Выравнивание : Соединение по промежуткам
Продолжительность промежутка : 40 мс. (1,00 видеокадр)
Время предзагрузки промежутка : 512 ms
Скриншоты:
       
   
Other forum [Profile] [PM]
Display posts from previous:    
Reply to topic

The time now is: Today 19:30

All times are GMT + 3 Hours



You cannot post new topics in this forum
You cannot reply to topics in this forum
You cannot edit your posts in this forum
You cannot delete your posts in this forum
You cannot vote in polls in this forum
You cannot attach files in this forum
You cannot download files in this forum